+ ShareSpark.net »  :::: Bollywood Zone » Indian PC Videos
|- Aashiqui 2 (2013) Bollywood Movie All Video Music Album 1080p Bluray x264 DTS-HDMA By ~MaLiK ZEE~


10% SBI and 10% Discount

Aashiqui 2 (2013) Bollywood Movie All Video Music Album 1080p Bluray x264 DTS-HDMA By ~MaLiK ZEE~

0 Members and 1 Guest are viewing this topic.

July 30, 2018, 06:43:04 PM
Aashiqui 2 (2013) Bollywood Movie All Video Music Album 1080p Bluray x264 DTS-HDMA By ~MaLiK ZEE~


Quote

General
Format                      : Matroska
Format version              : Version 4 / Version 2
File size                   : 427 MiB
Overall bit rate            : 15.5 Mb/s
Writing application         : Lavf57.71.100
Writing library             : Lavf57.71.100
ErrorDetectionType          : Per level 1

Video
ID                          : 1
Format                      : AVC
Format/Info                 : Advanced Video Codec
Format profile              : [email protected]
Format settings             : CABAC / 5 Ref Frames
Format settings, CABAC      : Yes
Format settings, ReFrames   : 5 frames
Codec ID                    : V_MPEG4/ISO/AVC
Bit rate                    : 14.0 Mb/s
Width                       : 1 920 pixels
Height                      : 816 pixels
Display aspect ratio        : 2.35:1
Frame rate mode             : Constant
Frame rate                  : 24.000 FPS
Color space                 : YUV
Chroma subsampling          : 4:2:0
Bit depth                   : 8 bits
Scan type                   : Progressive
Bits/(Pixel*Frame)          : 0.372
Stream size                 : 376 MiB (88%)
Writing library             : x264 core 130 r2273 b3065e6
Default                     : Yes
Forced                      : No
Color range                 : Limited
Color primaries             : BT.709
Transfer characteristics    : BT.709
Matrix coefficients         : BT.709

Audio
ID                          : 2
Format                      : DTS
Format/Info                 : Digital Theater Systems
Codec ID                    : A_DTS
Bit rate mode               : Constant
Bit rate                    : 1 509 kb/s
Channel(s)                  : 6 channels
Channel positions           : Front: L C R, Side: L R, LFE
Sampling rate               : 48.0 kHz
Frame rate                  : 93.750 FPS (512 SPF)
Bit depth                   : 24 bits
Compression mode            : Lossy
Stream size                 : 41.4 MiB (10%)
Default                     : Yes
Forced                      : No


 :ss:






















 :download:

Google Drive

Quote
01-Sunn Raha Hai Male

02-Sunn Raha Hai Male 2

03-Sunn Raha Hai Female

04-Piya Aaye Na 1

05-Bhula Dena 1

06-Bhula Dena 2

07-Chahun Main Ya Naa 1

08-Chahun Main Ya Naa 2

09-Piya Aaye Na 2

10-Tum Hi Ho

11-Tum Hi Ho End Roll

 :download:
Zip File
Quote





Share this topic on FacebookShare this topic on GoogleShare this topic on MySpaceShare this topic on TwitterShare this topic on Yahoo

« Last Edit: January 09, 2019, 12:53:22 PM by 【M】【A】【L】【I】【K】 【Z】【E】【E】 »


Thanks given by:


July 30, 2018, 07:02:07 PM
Reply #1
« Last Edit: November 24, 2018, 11:55:24 AM by Special26 »

July 30, 2018, 09:53:43 PM
Reply #2
  • ***************
  • Conqueror
  • Legend Member
  • *****
  • Thank You: 1968
  • Reputation: 566
  • Activity:
    100%
  • Country: pk
  • Posts: 2177
  • Topics: 1455
  • Join Date: Mar 2015
  • =$ Success Never Ends $=

January 05, 2019, 05:33:57 PM
Reply #3
  • Semi Newbie
  • **
  • Thank You: 1
  • Reputation: 0
  • Activity:
    6%
  • Country: in
  • Posts: 40
  • Topics: 1
  • Join Date: Sep 2015
  • ShareSpark Member

 

Related Topics





Back to top