+ ShareSpark.net »  :::: Bollywood Zone » Regional Movies » Punjabi Movies
|- Super Singh 2018 x264 720p HD Punjabi GOPISAHI


Mastercard 10% Off

Super Singh 2018 x264 720p HD Punjabi GOPISAHI

0 Members and 1 Guest are viewing this topic.

August 01, 2018, 06:31:14 PM
  • ***************
  • Team SSX
  • Legend Member
  • ***
  • Topic Author
  • Thank You: 1778
  • Reputation: 546
  • Activity:
    100%
  • Country: pk
  • Posts: 1872
  • Topics: 1163
  • Join Date: Mar 2015
  • =$ Success Never Ends $=
Super Singh 2018 x264 720p HD Punjabi GOPISAHI








Format : Matroska

Format version : Version 4 / Version 2

File size : 741 MiB

Duration : 2 h 28 min

Overall bit rate : 696 kb/s

Movie name : Super Singh 2018 GOPISAHI


Video

Format : AVC

Codec ID : V_MPEG4/ISO/AVC

Duration : 2 h 28 min

Bit rate : 599 kb/s

Width : 1 280 pixels

Height : 544 pixels

Display aspect ratio : 2.35:1

Frame rate mode : Constant

Frame rate : 25.000 FPS

Color space : YUV

Chroma subsampling : 4:2:0

Bit depth : 8 bits

Scan type : Progressive

Bits/(Pixel*Frame) : 0.034

Stream size : 637 MiB (86%)

Title : GOPISAHI

Writing library : x264 core 155 r2901 7d0ff22


Audio

Format : AAC

Duration : 2 h 28 min

Bit rate : 96.0 kb/s

Channel(s) : 2 channels

Channel positions : Front: L R

Sampling rate : 48.0 kHz

Frame rate : 46.875 FPS (1024 SPF)

Compression mode : Lossy

Delay relative to video : -101 ms

Stream size : 101 MiB (14%)

Title : GOPISAHI

Language : Panjabi




 :ss:













 :download:























Share this topic on FacebookShare this topic on GoogleShare this topic on MySpaceShare this topic on TwitterShare this topic on Yahoo



Thanks given by:


Tags:
 

Related Topics

  Subject / Started by Replies Last post
3 Replies
1545 Views
Last post April 05, 2018, 03:50:10 PM
by hunterz007
0 Replies
956 Views
Last post March 20, 2018, 02:03:30 PM
by jattsahi2
0 Replies
1047 Views
Last post April 09, 2018, 01:26:05 PM
by UnikAaYush
1 Replies
1216 Views
Last post April 26, 2018, 01:37:23 PM
by honey01
0 Replies
854 Views
Last post July 19, 2018, 11:52:31 AM
by shahzaibjaan




Back to top