+ ShareSpark.net »  :::: Bollywood Zone » Indian PC Videos
|- Khiladi 786 (2012) Bollywood Movie All Video Music Album 1080p Bluray x264 DTSHD-MA By ~MaLiK ZEE~

10% Off with Visa

Khiladi 786 (2012) Bollywood Movie All Video Music Album 1080p Bluray x264 DTSHD-MA By ~MaLiK ZEE~

0 Members and 1 Guest are viewing this topic.

August 05, 2018, 05:10:52 AM
Khiladi 786 (2012) Bollywood Movie All Video Music Album 1080p Bluray x264 DTSHD-MA By ~MaLiK ZEE~


Quote

General
Format                      : Matroska
Format version              : Version 4 / Version 2
Overall bit rate            : 8 616 kb/s
Writing application         : Lavf57.71.100
Writing library             : Lavf57.71.100
ErrorDetectionType          : Per level 1


Video
ID                          : 1
Format                      : AVC
Format/Info                 : Advanced Video Codec
Format profile              : [email protected]
Format settings             : CABAC / 4 Ref Frames
Format settings, CABAC      : Yes
Format settings, ReFrames   : 4 frames
Codec ID                    : V_MPEG4/ISO/AVC
Bit rate                    : 6 936 kb/s
Width                       : 1 920 pixels
Height                      : 816 pixels
Display aspect ratio        : 2.35:1
Frame rate mode             : Constant
Frame rate                  : 24.000 FPS
Color space                 : YUV
Chroma subsampling          : 4:2:0
Bit depth                   : 8 bits
Scan type                   : Progressive
Bits/(Pixel*Frame)          : 0.184
Stream size                 : 227 MiB (80%)
Default                     : Yes
Forced                      : No


Audio
ID                          : 2
Format                      : DTS
Format/Info                 : Digital Theater Systems
Codec ID                    : A_DTS
Bit rate mode               : Constant
Bit rate                    : 1 509 kb/s
Channel(s)                  : 6 channels
Channel positions           : Front: L C R, Side: L R, LFE
Sampling rate               : 48.0 kHz
Frame rate                  : 93.750 FPS (512 SPF)
Bit depth                   : 24 bits
Compression mode            : Lossy
Delay relative to video     : -45 ms
Stream size                 : 49.4 MiB (18%)
Language                    : Hindi
Default                     : Yes
Forced                      : No


 :ss:























 :download:

Google Drive

Quote
01-Khiladi Bhaiya

02-Lonely

03-Long Drive

04-Balma

05-Sari Sari Raat

06-Hookah Bar End Roll
:download:
Zip File
Quote





Share this topic on FacebookShare this topic on GoogleShare this topic on MySpaceShare this topic on TwitterShare this topic on Yahoo



Thanks given by:


August 07, 2018, 07:23:47 AM
Reply #1
  • Semi Newbie
  • **
  • Thank You: 0
  • Reputation: 3
  • Activity:
    2.4%
  • Country: in
  • Posts: 17
  • Topics: 0
  • Join Date: Nov 2016
  • ShareSpark Member
Please upload "Vivah (2006) & Dil To Pagal Hai  (1997) all songs

Tags:
 

Related Topics




Back to top