+ ShareSpark.net »  :::: Dubbed Zone (Dubbed English in Hindi) » English Movies Dubbed in Hindi » High Resolution Movies
|- Evan Almighty (2007) 1080p BluRay x264 Dual Audio [Hindi DD5.1 - English DD5.1] - Msubs ~ Ranvijay


Evan Almighty (2007) 1080p BluRay x264 Dual Audio [Hindi DD5.1 - English DD5.1] - Msubs ~ Ranvijay

0 Members and 1 Guest are viewing this topic.

August 07, 2018, 02:15:37 PM
  • Legend
  • Legend Member
  • ***
  • Topic Author
  • Thank You: 14067
  • Reputation: 2868
  • Activity:
    58.8%
  • Country: in
  • Posts: 6147
  • Topics: 5031
  • Join Date: Jan 2014
  • ıllıllı ѕмoĸιng ιѕ good ғor нealтн ıllıllı :)






Evan Almighty (2007) 1080p BluRay x264 Dual Audio [Hindi DD5.1 - English DD5.1] - Msubs ~ Ranvijay

Thanks To Hammer For Hindi Audio

Buy RDP Online



Quote
Format                                   : Matroska
Format version                           : Version 4 / Version 2
File size                                : 4.04 GiB
Duration                                 : 1 h 35 min
Overall bit rate                         : 6 050 kb/s
Movie name                               : Evan Almighty (2007) 1080p BluRay x264 Dual Audio [Hindi DD5.1 - English DD5.1] - Msubs ~ Ranvijay

Video
ID                                       : 1
Format                                   : AVC
Format/Info                              : Advanced Video Codec
Duration                                 : 1 h 35 min
Bit rate                                 : 5 000 kb/s
Width                                    : 1 920 pixels
Height                                   : 816 pixels
Display aspect ratio                     : 2.35:1
Frame rate mode                          : Constant
Frame rate                               : 23.976 (24000/1001) FPS
Color space                              : YUV
Chroma subsampling                       : 4:2:0
Bit depth                                : 8 bits
Scan type                                : Progressive
Bits/(Pixel*Frame)                       : 0.133
Stream size                              : 3.34 GiB (83%)
Title                                    : ~Ranvijay~

Audio #1
ID                                       : 2
Format                                   : AC-3
Format/Info                              : Audio Coding 3
Codec ID                                 : A_AC3
Duration                                 : 1 h 35 min
Bit rate mode                            : Constant
Bit rate                                 : 384 kb/s
Channel(s)                               : 6 channels
Channel positions                        : Front: L C R, Side: L R, LFE
Sampling rate                            : 48.0 kHz
Frame rate                               : 31.250 FPS (1536 SPF)
Bit depth                                : 16 bits
Compression mode                         : Lossy
Delay relative to video                  : 937 ms
Stream size                              : 263 MiB (6%)
Title                                    : ~Ranvijay~
Language                                 : Hindi
Service kind                             : Complete Main
Default                                  : Yes
Forced                                   : No

Audio #2
ID                                       : 3
Format                                   : AC-3
Format/Info                              : Audio Coding 3
Codec ID                                 : A_AC3
Duration                                 : 1 h 35 min
Bit rate mode                            : Constant
Bit rate                                 : 640 kb/s
Channel(s)                               : 6 channels
Channel positions                        : Front: L C R, Side: L R, LFE
Sampling rate                            : 48.0 kHz
Frame rate                               : 31.250 FPS (1536 SPF)
Bit depth                                : 16 bits
Compression mode                         : Lossy
Delay relative to video                  : -83 ms
Stream size                              : 438 MiB (11%)
Title                                    : ~Ranvijay~
Language                                 : English
Service kind                             : Complete Main
Default                                  : No
Forced                                   : No

Text #1
ID                                       : 4
Format                                   : PGS
Muxing mode                              : zlib
Codec ID                                 : S_HDMV/PGS
Codec ID/Info                            : Picture based subtitle format used on BDs/HD-DVDs
Duration                                 : 1 h 29 min
Bit rate                                 : 50.9 kb/s
Count of elements                        : 2753
Stream size                              : 32.6 MiB (1%)
Title                                    : ~Ranvijay~
Language                                 : English
Default                                  : Yes
Forced                                   : No

Text #2
ID                                       : 5
Format                                   : PGS
Muxing mode                              : zlib
Codec ID                                 : S_HDMV/PGS
Codec ID/Info                            : Picture based subtitle format used on BDs/HD-DVDs
Duration                                 : 1 h 29 min
Bit rate                                 : 25.8 kb/s
Count of elements                        : 2890
Stream size                              : 16.5 MiB (0%)
Title                                    : ~Ranvijay~
Language                                 : Hindi
Default                                  : No
Forced                                   : No












:download:

Quote


File Leeched & Uploaded From




Don't walk as you are king, walk as you don't care who the king is....!!
Never argue with an idiot. They drag you down to their level and then beat you with experience?

Share this topic on FacebookShare this topic on GoogleShare this topic on MySpaceShare this topic on TwitterShare this topic on Yahoo

« Last Edit: August 07, 2018, 02:18:38 PM by Rάήνίјάч1234 »



Don't walk as you are king, walk as you don't care who the king is....!!

Thanks given by:


August 07, 2018, 02:40:00 PM
Reply #1
  • Aur Time Well Come
  • Junior Moderator
  • Legend Member
  • ***
  • Thank You: 2136
  • Reputation: 607
  • Activity:
    35.4%
  • Country: pk
  • Posts: 2826
  • Topics: 2025
  • Join Date: Mar 2015
  • =$ Success Never Ends $=

August 07, 2018, 03:17:13 PM
Reply #2
  • Semi Newbie
  • **
  • Thank You: 0
  • Reputation: 4
  • Activity:
    0.4%
  • Country: in
  • Posts: 29
  • Topics: 0
  • Join Date: Aug 2017
  • ShareSpark Member
 :thank:  :rep: Add
You are incredible brother and your work also Thanks for this movie
« Last Edit: August 07, 2018, 03:18:10 PM by ravindra98 »

August 09, 2018, 10:10:46 PM
Reply #3
  • Semi Newbie
  • **
  • Thank You: 0
  • Reputation: 0
  • Activity:
    0.2%
  • Country: in
  • Posts: 22
  • Topics: 0
  • Join Date: Nov 2015
  • ShareSpark Member

 

Related Topics





Back to top