+ ShareSpark.net »  :::: Bollywood Zone » Indian PC Videos
|- Race (2008) Bollywood Movie All Video Music Album 1080p Bluray x264 DTS-HDMA By ~MaLiK ZEE~

Subscribe and Save

Race (2008) Bollywood Movie All Video Music Album 1080p Bluray x264 DTS-HDMA By ~MaLiK ZEE~

0 Members and 1 Guest are viewing this topic.

August 09, 2018, 03:41:32 AM
Race (2008) Bollywood Movie All Video Music Album 1080p Bluray x264 DTS-HDMA By ~MaLiK ZEE~


Quote

General
Format                      : Matroska
Format version              : Version 4 / Version 2
Overall bit rate mode       : Variable
Overall bit rate            : 20.0 Mb/s
Writing application         : Lavf57.71.100
Writing library             : Lavf57.71.100
ErrorDetectionType          : Per level 1

Video
ID                          : 1
Format                      : AVC
Format/Info                 : Advanced Video Codec
Format profile              : [email protected]
Format settings             : CABAC / 3 Ref Frames
Format settings, CABAC      : Yes
Format settings, ReFrames   : 3 frames
Codec ID                    : V_MPEG4/ISO/AVC
Bit rate mode               : Variable
Bit rate                    : 18.1 Mb/s
Maximum bit rate            : 40.0 Mb/s
Width                       : 1 920 pixels
Height                      : 816 pixels
Display aspect ratio        : 2.35:1
Frame rate mode             : Constant
Frame rate                  : 23.976 (24000/1001) FPS
Color space                 : YUV
Chroma subsampling          : 4:2:0
Bit depth                   : 8 bits
Scan type                   : Progressive
Bits/(Pixel*Frame)          : 0.482
Stream size                 : 477 MiB (90%)
Default                     : Yes
Forced                      : No

Audio
ID                          : 2
Format                      : DTS
Format/Info                 : Digital Theater Systems
Codec ID                    : A_DTS
Bit rate mode               : Constant
Bit rate                    : 1 509 kb/s
Channel(s)                  : 6 channels
Channel positions           : Front: L C R, Side: L R, LFE
Sampling rate               : 48.0 kHz
Frame rate                  : 93.750 FPS (512 SPF)
Bit depth                   : 24 bits
Compression mode            : Lossy
Delay relative to video     : -93 ms
Stream size                 : 39.8 MiB (8%)
Default                     : Yes
Forced                      : No


 :ss:
























 :download:

Google Drive

Quote
01-Dekho Nashe Mein

02-Pehli Nazar Mein

03-Zara Zara Touch Me

04-Khawab Dekhe

05-Race Saanson Ki

06-Race Is On My Mind End Roll
:download:
Zip File
Quote



Share this topic on FacebookShare this topic on GoogleShare this topic on MySpaceShare this topic on TwitterShare this topic on Yahoo



Thanks given by:


August 09, 2018, 05:57:49 AM
Reply #1
  • Team SSX
  • Elite Forces
  • ***
  • Thank You: 1381
  • Reputation: 489
  • Activity:
    66%
  • Country: np
  • Posts: 1404
  • Topics: 774
  • Join Date: Jul 2016
  • Love Forever !!

August 11, 2018, 01:37:23 AM
Reply #2
  • Elite Forces
  • ****
  • Thank You: 228
  • Reputation: 97
  • Activity:
    8.6%
  • Country: sa
  • Posts: 1140
  • Topics: 116
  • Join Date: Jan 2017
  • ShareSpark Member

Tags:
 

Related Topics




Back to top