+ ShareSpark.net »  :::: Dubbed Zone (Dubbed English in Hindi) » English Movies Dubbed in Hindi » High Resolution Movies
|- Avengers Infinity War (2018) 1080p BluRay x264 Dual Audio [Hindi DD5.1 - English DD5.1] - Esub ~ Ex


Samsung Galaxy 8

Avengers Infinity War (2018) 1080p BluRay x264 Dual Audio [Hindi DD5.1 - English DD5.1] - Esub ~ Ex

0 Members and 1 Guest are viewing this topic.

August 18, 2018, 01:14:56 AM
  • Global Moderator
  • Legend Member
  • *****
  • Topic Author
  • Thank You: 11354
  • Reputation: 2275
  • Activity:
    100%
  • Country: in
  • Posts: 5499
  • Topics: 4532
  • Join Date: Jan 2014
  • ıllıllı ѕмoĸιng ιѕ good ғor нealтн ıllıllı :)








Avengers Infinity War (2018) 1080p BluRay x264 Dual Audio [Hindi DD5.1 - English DD5.1] - Esub  ~ Ranvijay


Hindi Audio Credit Goes To Hammer

Buy RDP Online




Quote
Format                                   : Matroska
Format version                           : Version 4 / Version 2
File size                                : 5.27 GiB
Duration                                 : 2 h 29 min
Overall bit rate                         : 5 056 kb/s
Movie name                               : Avengers-Infinity War (2018) 1080p BluRay x264 Dual Audio [Hindi DD5.1 - English DD5.1] - Esub  ~ Ranvijay

Video
ID                                       : 1
Format                                   : AVC
Format/Info                              : Advanced Video Codec
Duration                                 : 2 h 29 min
Bit rate                                 : 4 574 kb/s
Width                                    : 1 920 pixels
Height                                   : 804 pixels
Display aspect ratio                     : 2.40:1
Frame rate mode                          : Constant
Frame rate                               : 23.976 (24000/1001) FPS
Original frame rate                      : 23.809 FPS
Color space                              : YUV
Chroma subsampling                       : 4:2:0
Bit depth                                : 8 bits
Scan type                                : Progressive
Bits/(Pixel*Frame)                       : 0.124
Stream size                              : 4.81 GiB (91%)
Title                                    : ~Ranvijay~

Audio
ID                                       : 1
Format                                   : AC-3
Format/Info                              : Audio Coding 3
Codec ID                                 : A_AC3
Duration                                 : 2 h 29 min
Bit rate mode                            : Constant
Bit rate                                 : 640 kb/s
Channel(s)                               : 6 channels
Channel positions                        : Front: L C R, Side: L R, LFE
Sampling rate                            : 48.0 kHz
Frame rate                               : 31.250 FPS (1536 SPF)
Bit depth                                : 16 bits
Compression mode                         : Lossy
Stream size                              : 684 MiB (100%)
Language                                 : Hindi
Service kind                             : Complete Main
Default                                  : Yes
Forced                                   : No

Audio #2
ID                                       : 2
Format                                   : AC-3
Format/Info                              : Audio Coding 3
Codec ID                                 : A_AC3
Duration                                 : 2 h 29 min
Bit rate mode                            : Constant
Bit rate                                 : 448 kb/s
Channel(s)                               : 6 channels
Channel positions                        : Front: L C R, Side: L R, LFE
Sampling rate                            : 48.0 kHz
Frame rate                               : 31.250 FPS (1536 SPF)
Bit depth                                : 16 bits
Compression mode                         : Lossy
Stream size                              : 479 MiB (9%)
Title                                    : ~Ranvijay~
Language                                 : English
Service kind                             : Complete Main
Default                                  : No
Forced                                   : No

Text #1
ID                                       : 3
Format                                   : UTF-8
Codec ID                                 : S_TEXT/UTF8
Codec ID/Info                            : UTF-8 Plain Text
Duration                                 : 2 h 28 min
Bit rate                                 : 42 b/s
Count of elements                        : 1540
Stream size                              : 45.9 KiB (0%)
Title                                    : ~Ranvijay~
Language                                 : English
Default                                  : No
Forced                                   : No

Text #2
ID                                       : 4
Format                                   : UTF-8
Codec ID                                 : S_TEXT/UTF8
Codec ID/Info                            : UTF-8 Plain Text
Duration                                 : 2 h 28 min
Bit rate                                 : 49 b/s
Count of elements                        : 2067
Stream size                              : 53.9 KiB (0%)
Title                                    : ~Ranvijay~
Language                                 : English
Default                                  : No
Forced                                   : No

Menu
00:00:00.000                             : en:Thanos Is Coming
00:11:28.000                             : en:Infinity Stones
00:18:14.000                             : en:Fight For The Time Stone
00:27:23.000                             : en:Who The Hell Are You Guys?
00:35:48.000                             : en:Wanda And Vision
00:42:23.000                             : en:Knowhere
00:54:12.000                             : en:Avengers Assemble
00:59:36.000                             : en:Take The Fight To Him
01:05:07.000                             : en:The Soul Stone
01:10:53.000                             : en:Nidavellir
01:17:07.000                             : en:Titan
01:24:14.000                             : en:Vormir
01:31:08.000                             : en:"Wakanda Forever"
01:42:00.000                             : en:Stormbreaker
01:45:57.000                             : en:Titan Confrontation
01:53:04.000                             : en:A Vision Situation
01:58:53.000                             : en:The Time Stone
02:03:58.000                             : en:The End Game
02:11:13.000                             : en:Aftermath
02:17:31.000                             : en:End Credits
















:download:

Quote


File Leeched & Uploaded From




Don't walk as you are king, walk as you don't care who the king is....!!
Never argue with an idiot. They drag you down to their level and then beat you with experience?

Share this topic on FacebookShare this topic on GoogleShare this topic on MySpaceShare this topic on TwitterShare this topic on Yahoo

« Last Edit: August 18, 2018, 01:17:00 AM by Rάήνίјάч1234 »



Don't walk as you are king, walk as you don't care who the king is....!!

August 18, 2018, 12:21:34 PM
Reply #1
  • Semi Newbie
  • **
  • Thank You: 0
  • Reputation: 0
  • Activity:
    0.4%
  • Country: id
  • Posts: 9
  • Topics: 0
  • Join Date: Apr 2018
  • ShareSpark Member

August 18, 2018, 01:49:36 PM
Reply #2
  • Hero Member
  • ***
  • Thank You: 6
  • Reputation: 6
  • Activity:
    2.8%
  • Country: in
  • Posts: 330
  • Topics: 7
  • Join Date: Mar 2012
  • ShareSpark Member.. Contact me 4 anything.

August 18, 2018, 05:21:11 PM
Reply #3
  • Semi Newbie
  • **
  • Thank You: 0
  • Reputation: 0
  • Activity:
    0.6%
  • Country: in
  • Posts: 12
  • Topics: 0
  • Join Date: Jul 2017
  • ShareSpark Member
BRO DO YOU HAVE ANY OF FOLLOWING MOVIE IN HINDI :-


12 Angry Men (Twelve Angry Men) (1957)
Pulp Fiction (1994)
The Good, The Bad & The Ugly (1966)
One Flew Over the Cuckoo's Nest (1975)
Goodfellas (1990)
Seven Samurai (1954)
City of God (2002)
It's a Wonderful Life (1946)
Léon (1994)
Interstellar (2014)
American History X (1998)
Casablanca (1942)
Spirited Away (2001)
City Lights (1931)
Untouchable (2011)
Modern Times (1936)
Whiplash (2014)
The Green Mile (1999)
The Pianist (2002)
Memento (2000)
Apocalypse Now (1979)
Sunset Boulevard (1950)
Dr. Strangelove or: How I Learned to Stop Worrying and Love the Bomb (1964)
Inside Out (2015)
The Lives of Others (2006) (Das Leben der Anderen)
The Great Dictator (1940)
Cinema Paradiso (1988)
The Shining (1980)
Paths of Glory (1957)
Grave of the Fireflies (1988)
Citizen Kane (1941)
North by Northwest (1959)
Princess Mononoke (1997)
Das Boot (1981)
M (1931)
Amélie (2001)
Once Upon a Time in America (1984)
Witness for the Prosecution (1957)
A Clockwork Orange (1971)
Double Indemnity (1944)
Taxi Driver (1976)
Requiem for a Dream (2000)
To Kill a Mockingbird (1962)
Lawrence of Arabia (1962)
Full Metal Jacket (1987)
Bicycle Thieves (1948)
Amadeus (1984)
Singin' in the Rain (1952)
Monty Python and the Holy Grail (1975)
2001: A Space Odyssey (1968)
The Kid (1921)
For a Few Dollars More (1965)
L.A. Confidential (1997)
Rashomon (1950)
All About Eve (1950)
The Apartment (1960)
The Treasure of the Sierra Madre (1948)
A Separation (2011)
Metropolis (1927)
The Third Man (1949)
Yojimbo (1961)
Some Like It Hot 1959
Unforgiven (1992)
Raging Bull (1980)
Downfall (2004)
The Hunt (2012)
Chinatown (1974)
The Great Escape 1963
On the Waterfront (1954)
Heat (1995)
Pan's Labyrinth (El laberinto del fauno)
Mr. Smith Goes to Washington (1939)
The Bridge on the River Kwai (1957)
My Neighbour Totoro (1988)
Ran (1985)
Ikiru (1952)
The Seventh Seal (1957)
The Gold Rush (1925)
Wild Strawberries (1957)
The Secret in Their Eyes (2009)
The General (1926)
Lock, Stock and Two Smoking Barrels (1998)
The Elephant Man (1980)
The Wolf of Wall Street.2013
Howl's Moving Castle (2004)
Warrior (2011)
The Big Lebowski (1998)
Rebecca (1940)
Judgement at Nuremberg (1961)
A Beautiful Mind (2001)
Cool Hand Luke (1967)
Fargo (1996)
Trainspotting (1996)
It Happened One Night (1934)
Gone Girl 2014
Into the Wild (2007)
Dial M for Murder (1954)
Rush (2013)
The Maltese Falcon (1941)
Mary and Max (2009)
Incendies (2010)
The Wages of Fear (1953)
Platoon (1986)
Life of Brian (1979)
Butch Cassidy and the Sundance Kid (1969)
Network (1976)
There Will Be Blood (2007)
Touch of Evil (1958)
The 400 Blows (1959)
Stand by Me (1986)
The princess bride (1987)
Annie Hall (1977)
Persona (1966)
The Grand Budapest Hotel (2014)
Amores Perros (2000)
In the Name of the Father (1993)
The Grapes of Wrath (1940)
Hachi: A Dog's Tale (2009)
Nausicaä of the Valley of the Wind (1984)
Les Diaboliques (1955)
Sin City2005
The Wizard of Oz (1939)
Stalker (1979)
The Best Years of Our Lives (1946)
Donnie Darko (2001)
8½ (1963)
Strangers on a Train (1951)
Wild Tales (2014)
Before Sunrise (1995)
The Battle of Algiers (1966)
Infernal Affairs (2002)
Throne of Blood (1957)
Groundhog Day (1993)
Memories of Murder (2003)
Fanny and Alexander (1982)
Barry Lyndon (1975)
High Noon (1952)
The King's Speech (2010)
Imitation Game 2014
La Haine (1995)
Notorious (1946)
Laputa: Castle in the Sky (1986)
Who's Afraid of Virginia Woolf? (1966)
The Help (2011)
Roman Holiday (1953)
The Night of the Hunter (1955)
Spring, Summer, Autumn, Winter... and Spring (2003)
La Strada (1954)
Underground (1995)
Papillon (1973)
Before Sunset (2004)
The Big Sleep (1946)
Departures (2008)
Laura (1944)
The Killing (1956)
Anatomy of a Murder (1959)
The Graduate (1967)
Akira (1988)
Paris, Texas (1984)
Elite Squad: The Enemy Within (2010)

Tags:
 

Related Topics





Back to top