+ ShareSpark.net »  :::: Bollywood Zone » Regional Movies » Punjabi Movies
|- Khido Khundi (2018) Punjabi 720p HDRip x264 AAC [MovCr] [974MB]


Amazon Pantry Offer

Khido Khundi (2018) Punjabi 720p HDRip x264 AAC [MovCr] [974MB]

0 Members and 1 Guest are viewing this topic.

August 15, 2018, 06:24:00 PM
  • Semi Newbie
  • **
  • Topic Author
  • Thank You: 7
  • Reputation: 2
  • Activity:
    2.8%
  • Country: my
  • Posts: 25
  • Topics: 24
  • Join Date: Aug 2018
  • ShareSpark Member
Khido Khundi (2018) Punjabi 720p HDRip x264 AAC [MovCr] [974MB]




General
Format                                   : Matroska
Format version                           : Version 4 / Version 2
File size                                : 974 MiB
Duration                                 : 2 h 17 min
Overall bit rate                         : 991 kb/s
Encoded date                             : UTC 2018-07-29 14:39:24
Writing application                      : mkvmerge v23.0.0 ('The Bride Said No') 64-bit
Writing library                          : libebml v1.3.6 + libmatroska v1.4.9

Video
ID                                       : 1
Format                                   : AVC
Format/Info                              : Advanced Video Codec
Format profile                           : [email protected]
Format settings                          : CABAC / 2 Ref Frames
Format settings, CABAC                   : Yes
Format settings, RefFrames               : 2 frames
Format settings, GOP                     : M=1, N=25
Codec ID                                 : V_MPEG4/ISO/AVC
Duration                                 : 2 h 17 min
Bit rate                                 : 893 kb/s
Width                                    : 1 280 pixels
Height                                   : 544 pixels
Display aspect ratio                     : 2.35:1
Frame rate mode                          : Constant
Frame rate                               : 24.000 FPS
Color space                              : YUV
Chroma subsampling                       : 4:2:0
Bit depth                                : 8 bits
Scan type                                : Progressive
Bits/(Pixel*Frame)                       : 0.053
Stream size                              : 878 MiB (90%)
Default                                  : Yes
Forced                                   : No

Audio
ID                                       : 2
Format                                   : AAC
Format/Info                              : Advanced Audio Codec
Format profile                           : LC
Codec ID                                 : A_AAC-2
Duration                                 : 2 h 17 min
Bit rate                                 : 96.0 kb/s
Channel(s)                               : 2 channels
Channel positions                        : Front: L R
Sampling rate                            : 44.1 kHz
Frame rate                               : 43.066 FPS (1024 SPF)
Compression mode                         : Lossy
Stream size                              : 93.6 MiB (10%)
Language                                 : Panjabi
Default                                  : Yes
Forced                                   : No


SCREENSHOTS






DOWNLOAD LINKS


(Unconverted Openload)






 :thumbs:

Share this topic on FacebookShare this topic on GoogleShare this topic on MySpaceShare this topic on TwitterShare this topic on Yahoo

« Last Edit: August 15, 2018, 06:25:16 PM by King Challa »



Tags:
 

Related Topics

  Subject / Started by Replies Last post
0 Replies
1237 Views
Last post June 26, 2018, 12:44:18 PM
by shahzaibjaan
3 Replies
3260 Views
Last post September 07, 2018, 10:49:25 PM
by jann_ali
0 Replies
854 Views
Last post July 19, 2018, 11:52:31 AM
by shahzaibjaan
0 Replies
738 Views
Last post August 01, 2018, 06:31:14 PM
by shahzaibjaan
0 Replies
722 Views
Last post August 11, 2018, 12:01:05 AM
by King Challa




Back to top