+ ShareSpark.net »  :::: Dubbed Zone (Dubbed English in Hindi) » English Movies Dubbed in Hindi » High Resolution Movies
|- Avengers Infinity War (2018) 1080p BluRay x264 Dual Audio [Hindi DD5.1 - English DTS-HDMA 7.1] - Esu


Amazon Pantry Offer
  • Avengers Infinity War (2018) 1080p BluRay x264 Dual Audio [Hindi DD5.1 - English DTS-HDMA 7.1] - Esu 5 1
Currently:  

Avengers Infinity War (2018) 1080p BluRay x264 Dual Audio [Hindi DD5.1 - English DTS-HDMA 7.1] - Esu

0 Members and 1 Guest are viewing this topic.

August 18, 2018, 05:38:46 AM
  • Global Moderator
  • Legend Member
  • *****
  • Topic Author
  • Thank You: 10787
  • Reputation: 2178
  • Activity:
    100%
  • Country: in
  • Posts: 5364
  • Topics: 4431
  • Join Date: Jan 2014
  • ıllıllı ѕмoĸιng ιѕ good ғor нealтн ıllıllı :)






Avengers Infinity War (2018) 1080p BluRay x264 Dual Audio [Hindi DD5.1 - English DTS-HDMA 7.1] - Esub ~Ranvijay

Hindi Audio Credit Goes To Hammer

Buy RDP Online




Quote
Format                                   : Matroska
Format version                           : Version 4 / Version 2
File size                                : 20.4 GiB
Duration                                 : 2 h 29 min
Overall bit rate mode                    : Variable
Overall bit rate                         : 19.5 Mb/s
Movie name                               : Avengers Infinity War (2018) 1080p BluRay x264 Dual Audio [Hindi D5.1 - English DTS-HDMA 7.1] - Esub ~Ranvijay

Video
ID                                       : 1
Format                                   : AVC
Format/Info                              : Advanced Video Codec
Duration                                 : 2 h 29 min
Bit rate mode                            : Variable
Bit rate                                 : 14.0 Mb/s
Maximum bit rate                         : 30.0 Mb/s
Width                                    : 1 920 pixels
Height                                   : 1 080 pixels
Display aspect ratio                     : 16:9
Frame rate mode                          : Constant
Frame rate                               : 23.976 (23976/1000) FPS
Color space                              : YUV
Chroma subsampling                       : 4:2:0
Bit depth                                : 8 bits
Scan type                                : Progressive
Bits/(Pixel*Frame)                       : 0.282
Stream size                              : 14.6 GiB (72%)
Title                                    : ~Ranvijay~

Audio #1
ID                                       : 2
Format                                   : AC-3
Format/Info                              : Audio Coding 3
Codec ID                                 : A_AC3
Duration                                 : 2 h 29 min
Bit rate mode                            : Constant
Bit rate                                 : 640 kb/s
Channel(s)                               : 6 channels
Channel positions                        : Front: L C R, Side: L R, LFE
Sampling rate                            : 48.0 kHz
Frame rate                               : 31.250 FPS (1536 SPF)
Bit depth                                : 16 bits
Compression mode                         : Lossy
Stream size                              : 684 MiB (3%)
Title                                    : ~Ranvijay~
Language                                 : Hindi
Service kind                             : Complete Main
Default                                  : Yes
Forced                                   : Yes

Audio #2
ID                                       : 3
Format                                   : DTS
Format/Info                              : Digital Theater Systems
Format profile                           : MA / Core
Codec ID                                 : A_DTS
Duration                                 : 2 h 29 min
Bit rate mode                            : Variable / Constant
Bit rate                                 : 4 901 kb/s / 1 509 kb/s
Channel(s)                               : 8 channels / 6 channels
Channel positions                        : Front: L C R, Side: L R, Back: L R, LFE / Front: L C R, Side: L R, LFE
Sampling rate                            : 48.0 kHz
Frame rate                               : 93.750 FPS (512 SPF)
Bit depth                                : 24 bits
Compression mode                         : Lossless / Lossy
Stream size                              : 5.11 GiB (25%)
Title                                    : ~Ranvijay~
Default                                  : No
Forced                                   : No

Text
ID                                       : 4
Format                                   : PGS
Muxing mode                              : zlib
Codec ID                                 : S_HDMV/PGS
Codec ID/Info                            : Picture based subtitle format used on BDs/HD-DVDs
Duration                                 : 2 h 28 min
Bit rate                                 : 32.9 kb/s
Count of elements                        : 4134
Stream size                              : 34.9 MiB (0%)
Title                                    : ~Ranvijay~
Language                                 : English
Default                                  : Yes
Forced                                   : No

Menu
00:00:00.000                             : en:00:00:00.000
00:11:28.729                             : en:00:11:28.729
00:18:13.884                             : en:00:18:13.884
00:27:23.808                             : en:00:27:23.808
00:35:48.813                             : en:00:35:48.813
00:42:23.541                             : en:00:42:23.541
00:54:12.874                             : en:00:54:12.874
00:59:36.739                             : en:00:59:36.739
01:05:07.153                             : en:01:05:07.153
01:10:53.666                             : en:01:10:53.666
01:17:06.955                             : en:01:17:06.955
01:24:14.758                             : en:01:24:14.758
01:31:08.004                             : en:01:31:08.004
01:42:00.405                             : en:01:42:00.405
01:45:57.809                             : en:01:45:57.809
01:53:04.068                             : en:01:53:04.068
01:58:52.917                             : en:01:58:52.917
02:03:58.180                             : en:02:03:58.180
02:11:13.282                             : en:02:11:13.282
02:17:31.284                             : en:02:17:31.284
02:29:20.993                             : en:02:29:20.993


















:download:

Quote



File Leeched & Uploaded From




Don't walk as you are king, walk as you don't care who the king is....!!
Never argue with an idiot. They drag you down to their level and then beat you with experience?

Share this topic on FacebookShare this topic on GoogleShare this topic on MySpaceShare this topic on TwitterShare this topic on Yahoo




Don't walk as you are king, walk as you don't care who the king is....!!

August 18, 2018, 06:00:51 AM
Reply #1
  • Semi Newbie
  • **
  • Thank You: 0
  • Reputation: 0
  • Activity:
    2.4%
  • Country: in
  • Posts: 19
  • Topics: 0
  • Join Date: Nov 2015
  • ShareSpark Member

August 19, 2018, 10:06:12 AM
Reply #2
  • Devoted Member
  • **
  • Thank You: 0
  • Reputation: 5
  • Activity:
    32.6%
  • Country: in
  • Posts: 160
  • Topics: 0
  • Join Date: Jul 2018
  • ShareSpark Member
awesome bro . please give me the flac , wav or alac files links too. i lost my all audio data due to hard disk failure. thanks alot . :thank: :thank: :thank: :10on10: :wow:

 

Related Topics





Back to top