+ ShareSpark.net »  :::: Dubbed Zone (Dubbed English in Hindi) » English Movies Dubbed in Hindi » Small Size Dubbed Movies
|- Stuck In Love 2012 x264 720p Esub BluRay Dual Audio English Hindi GOPISAHI


10% SBI and 10% Discount

Stuck In Love 2012 x264 720p Esub BluRay Dual Audio English Hindi GOPISAHI

0 Members and 1 Guest are viewing this topic.

August 28, 2018, 12:04:03 PM
  • Aur Time Well Come
  • Conqueror
  • Legend Member
  • *****
  • Topic Author
  • Thank You: 2123
  • Reputation: 603
  • Activity:
    64.2%
  • Country: pk
  • Posts: 2788
  • Topics: 1986
  • Join Date: Mar 2015
  • =$ Success Never Ends $=
Stuck In Love 2012 x264 720p Esub BluRay Dual Audio English Hindi GOPISAHI









Format : Matroska

Format version : Version 4 / Version 2

File size : 823 MiB

Duration : 1 h 36 min

Overall bit rate : 1 188 kb/s

Movie name : Stuck In Love 2012 GOPISAHI


Video

Format : AVC

Codec ID : V_MPEG4/ISO/AVC

Duration : 1 h 36 min

Bit rate : 996 kb/s

Width : 1 280 pixels

Height : 720 pixels

Display aspect ratio : 16:9

Frame rate mode : Constant

Frame rate : 23.976 (24000/1001) FPS

Original frame rate : 23.976 (23976/1000) FPS

Color space : YUV

Chroma subsampling : 4:2:0

Bit depth : 8 bits

Scan type : Progressive

Bits/(Pixel*Frame) : 0.045

Stream size : 690 MiB (84%)

Title : GOPISAHI

Writing library : x264 core 138 r2 9e941d1


Audio #1

Format : AAC

Duration : 1 h 32 min

Bit rate : 96.0 kb/s

Channel(s) : 2 channels

Channel positions : Front: L R

Sampling rate : 48.0 kHz

Frame rate : 46.875 FPS (1024 SPF)

Compression mode : Lossy

Delay relative to video : -83 ms

Stream size : 63.9 MiB (8%)

Title : GOPISAHI

Language : Hindi


Audio #2

Format : AAC

Duration : 1 h 36 min

Bit rate : 96.0 kb/s

Channel(s) : 2 channels

Channel positions : Front: L R

Sampling rate : 48.0 kHz

Frame rate : 46.875 FPS (1024 SPF)

Compression mode : Lossy

Delay relative to video : -83 ms

Stream size : 66.7 MiB (8%)

Title : GOPISAHI

Language : English


Text

Language : English





 :ss:











 :download:























Share this topic on FacebookShare this topic on GoogleShare this topic on MySpaceShare this topic on TwitterShare this topic on Yahoo




Tags:
 

Related Topics





Back to top