+ ShareSpark.net »  :::: Bollywood Zone » Regional Movies » Punjabi Movies
|- Harjeeta 2018 x264 720p TV Punjabi GOPISAHI


TV and Appliances

Harjeeta 2018 x264 720p TV Punjabi GOPISAHI

0 Members and 1 Guest are viewing this topic.

August 31, 2018, 12:54:24 PM
  • ***************
  • Team SSX
  • Legend Member
  • ***
  • Topic Author
  • Thank You: 1807
  • Reputation: 552
  • Activity:
    100%
  • Country: pk
  • Posts: 1890
  • Topics: 1181
  • Join Date: Mar 2015
  • =$ Success Never Ends $=
Harjeeta 2018 x264 720p TV Punjabi GOPISAHI








Format : Matroska
Format version : Version 4 / Version 2
File size : 645 MiB
Duration : 2 h 9 min
Overall bit rate : 697 kb/s
Movie name : Harjeeta 2018 GOPISAHI

Video
Format : AVC
Format/Info : Advanced Video Codec
Codec ID : V_MPEG4/ISO/AVC
Duration : 2 h 9 min
Bit rate : 599 kb/s
Width : 1 280 pixels
Height : 708 pixels
Display aspect ratio : 16:9
Frame rate mode : Constant
Frame rate : 25.000 FPS
Color space : YUV
Chroma subsampling : 4:2:0
Bit depth : 8 bits
Scan type : Progressive
Bits/(Pixel*Frame) : 0.026
Stream size : 554 MiB (86%)
Title : GOPISAHI
Writing library : x264 core 155 r2901 7d0ff22

Audio
Format : AAC
Duration : 2 h 9 min
Bit rate : 96.0 kb/s
Channel(s) : 2 channels
Channel positions : Front: L R
Sampling rate : 48.0 kHz
Frame rate : 46.875 FPS (1024 SPF)
Compression mode : Lossy
Delay relative to video : -44 ms
Stream size : 89.0 MiB (14%)
Title : GOPISAHI
Language : Panjabi




 :ss:













 :download:
























Share this topic on FacebookShare this topic on GoogleShare this topic on MySpaceShare this topic on TwitterShare this topic on Yahoo



Thanks given by:


September 01, 2018, 11:03:54 AM
Reply #1

Tags:
 

Related Topics

  Subject / Started by Replies Last post
1 Replies
1288 Views
Last post February 12, 2018, 08:26:57 AM
by Changezi
0 Replies
858 Views
Last post July 19, 2018, 11:52:31 AM
by shahzaibjaan
0 Replies
747 Views
Last post August 01, 2018, 06:31:14 PM
by shahzaibjaan
0 Replies
749 Views
Last post October 03, 2018, 04:14:44 PM
by shahzaibjaan
0 Replies
475 Views
Last post October 23, 2018, 03:25:18 PM
by shahzaibjaan




Back to top