+ ShareSpark.net »  :::: Bollywood Zone » Indian PC Videos
|- Hate Story 4 (2018) Bollywood Movie Music Album 1080p WEB-DL H-264 AAC By ~MaLiK ZEE~


Amazon Pantry Offer

Hate Story 4 (2018) Bollywood Movie Music Album 1080p WEB-DL H-264 AAC By ~MaLiK ZEE~

0 Members and 1 Guest are viewing this topic.

September 03, 2018, 07:41:13 PM
Hate Story 4 (2018) Bollywood Movie Music Album 1080p WEB-DL H-264 AAC By ~MaLiK ZEE~


~♥ BollyWooD MoviE ♥~
(Hate Story 4)

Quote

Specs ♪♫
General
Format                      : Matroska
Format version              : Version 4 / Version 2
File size                   : 1.38 GB
Overall bit rate            : 16.1 Mb/s
Encoded date                : UTC 2018-09-03 07:35:07
Writing application         : mkvmerge v25.0.0 ('Prog Noir') 64-bit
Writing library             : libebml v1.3.6 + libmatroska v1.4.9

♪ Video ♪
ID                          : 1
Format                      : AVC
Format/Info                 : Advanced Video Codec
Format profile              : [email protected]
Format settings             : CABAC / 3 Ref Frames
Format settings, CABAC      : Yes
Format settings, ReFrames   : 3 frames
Codec ID                    : V_MPEG4/ISO/AVC
Bit rate                    : 15.7 Mb/s
Width                       : 1 920 pixels
Height                      : 816 pixels
Display aspect ratio        : 2.35:1
Frame rate mode             : Constant
Frame rate                  : 23.976 (23976/1000) FPS
Color space                 : YUV
Chroma subsampling          : 4:2:0
Bit depth                   : 8 bits
Scan type                   : Progressive
Bits/(Pixel*Frame)          : 0.419
Stream size                 : 298 MiB (98%)
Title                       : ~MaLiK ZEE~
Default                     : No
Forced                      : No

♫ Audio ♫
ID                          : 2
Format                      : AAC
Format/Info                 : Advanced Audio Codec
Format profile              : LC
Codec ID                    : A_AAC-2
Bit rate                    : 323 kb/s
Channel(s)                  : 2 channels
Channel positions           : Front: L R
Sampling rate               : 48.0 kHz
Frame rate                  : 46.875 FPS (1024 SPF)
Compression mode            : Lossy
Delay relative to video     : 17 ms
Stream size                 : 6.12 MiB (2%)
Title                       : ~MaLiK ZEE~
Language                    : Hindi
Default                     : Yes
Forced                      : No

English Subtitles : Yes



 :ss:




































 :download:

♥~ Google Drive ♥~

Quote
01-Aashiq Banaya

02-Tum Mere Ho

03-Boond Boond

04-Badnaamiyan

05-Mohabbat Nasha Hai
:download:
♥~ Zip File ♥~
Quote



Share this topic on FacebookShare this topic on GoogleShare this topic on MySpaceShare this topic on TwitterShare this topic on Yahoo

« Last Edit: November 18, 2018, 02:49:21 PM by 【M】【A】【L】【I】【K】 【Z】【E】【E】 »


Thanks given by:


September 03, 2018, 09:29:59 PM
Reply #1
  • Begginer
  • **
  • Thank You: 0
  • Reputation: 0
  • Activity:
    0.4%
  • Country: in
  • Posts: 54
  • Topics: 0
  • Join Date: Nov 2013
  • ShareSpark Member

September 03, 2018, 09:44:50 PM
Reply #2

September 04, 2018, 09:34:06 AM
Reply #3
  • Begginer
  • **
  • Thank You: 0
  • Reputation: 0
  • Activity:
    0%
  • Country: pk
  • Posts: 72
  • Topics: 0
  • Join Date: Feb 2017
  • ShareSpark Member

September 04, 2018, 09:40:20 AM
Reply #4
  • Begginer
  • **
  • Thank You: 0
  • Reputation: 0
  • Activity:
    0%
  • Country: pk
  • Posts: 72
  • Topics: 0
  • Join Date: Feb 2017
  • ShareSpark Member

December 07, 2018, 03:55:59 PM
Reply #5
  • Newbie
  • **
  • Thank You: 0
  • Reputation: 0
  • Activity:
    0%
  • Country: in
  • Posts: 1
  • Topics: 0
  • Join Date: Jan 2017
  • ShareSpark Member

Tags:
 

Related Topics





Back to top