+ ShareSpark.net »  :::: Dubbed Zone (Dubbed English in Hindi) » English Movies Dubbed in Hindi » High Resolution Movies
|- Indiana Jones - The Complete Adventures (1981-2008) 1080p BluRay x264 Dual Audio - Esub ~ Ranvijay


Electroncs Sale

Indiana Jones - The Complete Adventures (1981-2008) 1080p BluRay x264 Dual Audio - Esub ~ Ranvijay

0 Members and 1 Guest are viewing this topic.

September 09, 2018, 08:01:05 AM
  • Global Moderator
  • Legend Member
  • *****
  • Topic Author
  • Thank You: 10771
  • Reputation: 2174
  • Activity:
    100%
  • Country: in
  • Posts: 5356
  • Topics: 4424
  • Join Date: Jan 2014
  • ıllıllı ѕмoĸιng ιѕ good ғor нealтн ıllıllı :)


Indiana Jones - The Complete Adventures (1981-2008) 1080p BluRay  x264 Dual Audio - Esub ~ Ranvijay

Note :- Indiana Jones and the Temple of Doom (1984) Have Only English Language With Hindi PGS


Indiana Jones and the Raiders of the Lost Ark (1981) 1080p BluRay x264 Dual Audio [Hindi DD2.0 - English DD5.1] - Esub ~ Ranvijay

Quote
Format                                   : Matroska
Format version                           : Version 4 / Version 2
File size                                : 4.17 GiB
Duration                                 : 1 h 55 min
Overall bit rate                         : 5 179 kb/s
Movie name                               : Indiana Jones and the Raiders of the Lost Ark (1981) 1080p BluRay x264 Dual Audio [Hindi DD2.0 - English DD5.1] - Esub ~ Ranvijay

Video
ID                                       : 1
Format                                   : AVC
Format/Info                              : Advanced Video Codec
Duration                                 : 1 h 55 min
Bit rate                                 : 4 500 kb/s
Width                                    : 1 920 pixels
Height                                   : 816 pixels
Display aspect ratio                     : 2.35:1
Frame rate mode                          : Constant
Frame rate                               : 23.976 (24000/1001) FPS
Color space                              : YUV
Chroma subsampling                       : 4:2:0
Bit depth                                : 8 bits
Scan type                                : Progressive
Bits/(Pixel*Frame)                       : 0.120
Stream size                              : 3.62 GiB (87%)
Title                                    : ~Ranvijay~

Audio #1
ID                                       : 2
Format                                   : AC-3
Format/Info                              : Audio Coding 3
Codec ID                                 : A_AC3
Duration                                 : 1 h 55 min
Bit rate mode                            : Constant
Bit rate                                 : 224 kb/s
Channel(s)                               : 2 channels
Channel positions                        : Front: L R
Sampling rate                            : 44.1 kHz
Frame rate                               : 28.711 FPS (1536 SPF)
Bit depth                                : 16 bits
Compression mode                         : Lossy
Delay relative to video                  : -83 ms
Stream size                              : 185 MiB (4%)
Title                                    : ~Ranvijay~
Language                                 : Hindi
Service kind                             : Complete Main
Default                                  : Yes
Forced                                   : Yes

Audio #2
ID                                       : 3
Format                                   : AC-3
Format/Info                              : Audio Coding 3
Codec ID                                 : A_AC3
Duration                                 : 1 h 55 min
Bit rate mode                            : Constant
Bit rate                                 : 448 kb/s
Channel(s)                               : 6 channels
Channel positions                        : Front: L C R, Side: L R, LFE
Sampling rate                            : 48.0 kHz
Frame rate                               : 31.250 FPS (1536 SPF)
Bit depth                                : 16 bits
Compression mode                         : Lossy
Delay relative to video                  : -83 ms
Stream size                              : 370 MiB (9%)
Title                                    : ~Ranvijay~
Language                                 : English
Service kind                             : Complete Main
Default                                  : No
Forced                                   : No

Text
ID                                       : 4
Format                                   : PGS
Muxing mode                              : zlib
Codec ID                                 : S_HDMV/PGS
Codec ID/Info                            : Picture based subtitle format used on BDs/HD-DVDs
Duration                                 : 1 h 48 min
Bit rate                                 : 21.9 kb/s
Count of elements                        : 2014
Stream size                              : 17.0 MiB (0%)
Title                                    : ~Ranvijay~
Language                                 : English
Default                                  : Yes
Forced                                   : Yes




Indiana Jones and the Temple of Doom (1984) 1080p BluRay x264 Eng DD5.1 - Msubs ~ Ranvijay

Quote
General
Format                                   : Matroska
Format version                           : Version 4 / Version 2
File size                                : 4.10 GiB
Duration                                 : 1 h 58 min
Overall bit rate                         : 4 959 kb/s
Movie name                               : Indiana Jones and the Temple of Doom (1984) 1080p BluRay x264 Eng DD5.1 - Msubs ~ Ranvijay

Video
ID                                       : 1
Format                                   : AVC
Format/Info                              : Advanced Video Codec
Duration                                 : 1 h 58 min
Bit rate                                 : 4 500 kb/s
Width                                    : 1 920 pixels
Height                                   : 816 pixels
Display aspect ratio                     : 2.35:1
Frame rate mode                          : Constant
Frame rate                               : 23.976 (24000/1001) FPS
Stream size                              : 3.72 GiB (91%)
Title                                    : ~Ranvijay~

Audio
ID                                       : 2
Format                                   : AC-3
Format/Info                              : Audio Coding 3
Codec ID                                 : A_AC3
Duration                                 : 1 h 58 min
Bit rate mode                            : Constant
Bit rate                                 : 448 kb/s
Channel(s)                               : 6 channels
Channel positions                        : Front: L C R, Side: L R, LFE
Sampling rate                            : 48.0 kHz
Frame rate                               : 31.250 FPS (1536 SPF)
Bit depth                                : 16 bits
Compression mode                         : Lossy
Delay relative to video                  : -83 ms
Stream size                              : 380 MiB (9%)
Title                                    : ~Ranvijay~
Language                                 : English
Service kind                             : Complete Main
Default                                  : Yes
Forced                                   : Yes

Text #1
ID                                       : 3
Format                                   : PGS
Muxing mode                              : zlib
Codec ID                                 : S_HDMV/PGS
Codec ID/Info                            : Picture based subtitle format used on BDs/HD-DVDs
Duration                                 : 1 h 52 min
Bit rate                                 : 17.7 kb/s
Count of elements                        : 1734
Stream size                              : 14.2 MiB (0%)
Title                                    : ~Ranvijay~
Language                                 : English
Default                                  : No
Forced                                   : No

Text #2
ID                                       : 4
Format                                   : PGS
Muxing mode                              : zlib
Codec ID                                 : S_HDMV/PGS
Codec ID/Info                            : Picture based subtitle format used on BDs/HD-DVDs
Duration                                 : 1 h 52 min
Bit rate                                 : 22.3 kb/s
Count of elements                        : 2234
Stream size                              : 17.9 MiB (0%)
Title                                    : ~Ranvijay~
Language                                 : English
Default                                  : Yes
Forced                                   : Yes




Indiana Jones and the Last Crusade (1989) 1080p BluRay x264 Dual Audio [Hindi DD5.1 - English DD5.1] - Esub ~ Ranvijay

Quote
General
Format                                   : Matroska
Format version                           : Version 4 / Version 2
File size                                : 4.79 GiB
Duration                                 : 2 h 6 min
Overall bit rate                         : 5 405 kb/s
Movie name                               : Indiana Jones and the Last Crusade (1989) 1080p BluRay x264 Dual Audio [Hindi DD5.1 - English DD5.1] - Esub ~ Ranvijay

Video
ID                                       : 1
Format                                   : AVC
Format/Info                              : Advanced Video Codec
Duration                                 : 2 h 6 min
Bit rate                                 : 4 500 kb/s
Width                                    : 1 920 pixels
Height                                   : 816 pixels
Display aspect ratio                     : 2.35:1
Frame rate mode                          : Constant
Frame rate                               : 23.976 (24000/1001) FPS
Stream size                              : 3.99 GiB (83%)
Title                                    : ~Ranvijay~

Audio #1
ID                                       : 2
Format                                   : AC-3
Format/Info                              : Audio Coding 3
Codec ID                                 : A_AC3
Duration                                 : 2 h 6 min
Bit rate mode                            : Constant
Bit rate                                 : 448 kb/s
Channel(s)                               : 6 channels
Channel positions                        : Front: L C R, Side: L R, LFE
Sampling rate                            : 48.0 kHz
Frame rate                               : 31.250 FPS (1536 SPF)
Bit depth                                : 16 bits
Compression mode                         : Lossy
Delay relative to video                  : -83 ms
Stream size                              : 406 MiB (8%)
Title                                    : ~Ranvijay~
Language                                 : Hindi
Service kind                             : Complete Main
Default                                  : Yes
Forced                                   : Yes

Audio #2
ID                                       : 3
Format                                   : AC-3
Format/Info                              : Audio Coding 3
Codec ID                                 : A_AC3
Duration                                 : 2 h 6 min
Bit rate mode                            : Constant
Bit rate                                 : 448 kb/s
Channel(s)                               : 6 channels
Channel positions                        : Front: L C R, Side: L R, LFE
Sampling rate                            : 48.0 kHz
Frame rate                               : 31.250 FPS (1536 SPF)
Bit depth                                : 16 bits
Compression mode                         : Lossy
Delay relative to video                  : -83 ms
Stream size                              : 407 MiB (8%)
Title                                    : ~Ranvijay~
Language                                 : English
Service kind                             : Complete Main
Default                                  : No
Forced                                   : No

Text
ID                                       : 4
Format                                   : PGS
Muxing mode                              : zlib
Codec ID                                 : S_HDMV/PGS
Codec ID/Info                            : Picture based subtitle format used on BDs/HD-DVDs
Duration                                 : 1 h 59 min
Bit rate                                 : 27.1 kb/s
Count of elements                        : 2612
Stream size                              : 23.1 MiB (0%)
Language                                 : English
Default                                  : Yes
Forced                                   : Yes




Indiana Jones and the Kingdom of the Crystal Skull (2008) 1080p BluRay x264 Dual Audio [Hindi DD5.1 - English DD5.1] - Esub ~ Ranvijay

Quote
General
Format                                   : Matroska
Format version                           : Version 4 / Version 2
File size                                : 4.79 GiB
Duration                                 : 2 h 2 min
Overall bit rate                         : 5 597 kb/s
Movie name                               : Indiana Jones and the Kingdom of the Crystal Skull (2008) 1080p BluRay x264 Dual Audio [Hindi DD5.1 - English DD5.1] - Esub ~ Ranvijay

Video
ID                                       : 1
Format                                   : AVC
Format/Info                              : Advanced Video Codec
Duration                                 : 2 h 2 min
Bit rate                                 : 4 500 kb/s
Width                                    : 1 920 pixels
Height                                   : 816 pixels
Display aspect ratio                     : 2.35:1
Frame rate mode                          : Constant
Frame rate                               : 23.976 (24000/1001) FPS
Stream size                              : 3.85 GiB (80%)
Title                                    : ~Ranvijay~

Audio #1
ID                                       : 2
Format                                   : AC-3
Format/Info                              : Audio Coding 3
Codec ID                                 : A_AC3
Duration                                 : 2 h 2 min
Bit rate mode                            : Constant
Bit rate                                 : 640 kb/s
Channel(s)                               : 6 channels
Channel positions                        : Front: L C R, Side: L R, LFE
Sampling rate                            : 48.0 kHz
Frame rate                               : 31.250 FPS (1536 SPF)
Bit depth                                : 16 bits
Compression mode                         : Lossy
Delay relative to video                  : 1 s 239 ms
Stream size                              : 561 MiB (11%)
Title                                    : ~Ranvijay~
Language                                 : Hindi
Service kind                             : Complete Main
Default                                  : Yes
Forced                                   : Yes

Audio #2
ID                                       : 3
Format                                   : AC-3
Format/Info                              : Audio Coding 3
Codec ID                                 : A_AC3
Duration                                 : 2 h 2 min
Bit rate mode                            : Constant
Bit rate                                 : 448 kb/s
Channel(s)                               : 6 channels
Channel positions                        : Front: L C R, Side: L R, LFE
Sampling rate                            : 48.0 kHz
Frame rate                               : 31.250 FPS (1536 SPF)
Bit depth                                : 16 bits
Compression mode                         : Lossy
Delay relative to video                  : -83 ms
Stream size                              : 393 MiB (8%)
Title                                    : ~Ranvijay~
Language                                 : English
Service kind                             : Complete Main
Default                                  : No
Forced                                   : No

Text
ID                                       : 4
Format                                   : PGS
Muxing mode                              : zlib
Codec ID                                 : S_HDMV/PGS
Codec ID/Info                            : Picture based subtitle format used on BDs/HD-DVDs
Duration                                 : 1 h 54 min
Bit rate                                 : 27.3 kb/s
Count of elements                        : 2094
Stream size                              : 22.5 MiB (0%)
Title                                    : ~Ranvijay~
Language                                 : English
Default                                  : Yes
Forced                                   : Yes



:download:

Quote





Samples

Quote





File Leeched & Uploaded From




Don't walk as you are king, walk as you don't care who the king is....!!
Never argue with an idiot. They drag you down to their level and then beat you with experience?

Share this topic on FacebookShare this topic on GoogleShare this topic on MySpaceShare this topic on TwitterShare this topic on Yahoo

« Last Edit: September 09, 2018, 08:03:29 AM by Rάήνίјάч1234 »



Don't walk as you are king, walk as you don't care who the king is....!!

Thanks given by:


September 09, 2018, 08:06:35 AM
Reply #1
  • Semi Newbie
  • **
  • Thank You: 0
  • Reputation: 4
  • Activity:
    5%
  • Country: in
  • Posts: 26
  • Topics: 0
  • Join Date: Aug 2017
  • ShareSpark Member

September 09, 2018, 08:18:58 AM
Reply #2
  • Semi Newbie
  • **
  • Thank You: 0
  • Reputation: 2
  • Activity:
    5%
  • Country: in
  • Posts: 25
  • Topics: 0
  • Join Date: Jun 2018
  • ShareSpark Member
You think for everyone incredible share
Sir i always support you  :rep::thank: my humble request can you available Harry potter series in Hindi 1080p bluray each file size almost 5 GB
« Last Edit: September 09, 2018, 08:20:51 AM by Rahul902 »

September 09, 2018, 12:12:24 PM
Reply #3
  • Conqueror
  • Elite Forces
  • *****
  • Thank You: 493
  • Reputation: 184
  • Activity:
    29.2%
  • Country: in
  • Posts: 1127
  • Topics: 490
  • Join Date: Oct 2015
  • Hit ThanX Button 🔳 N Repute Button 🔳
Hit Thnx Button 🔳 N + Repute Button 🔳 Always Appreciate UploadeR 🤗 GiVe Respect GeT Respect :yu:

September 12, 2018, 10:14:01 PM
Reply #4
  • Begginer
  • **
  • Thank You: 0
  • Reputation: 1
  • Activity:
    0.2%
  • Posts: 66
  • Topics: 0
  • Join Date: Mar 2013
  • ShareSpark Member
Love to Download if its still Available..Thanks Bro Rep + Added :10on10:

September 13, 2018, 08:58:54 AM
Reply #5
  • Hero Member
  • ***
  • Thank You: 0
  • Reputation: 4
  • Activity:
    3.2%
  • Posts: 354
  • Topics: 1
  • Join Date: Jul 2012
  • ShareSpark Member
Please also upload TOY STORY TRILOGY in 1080p Dual Audio bcoz all previous links are dead.

September 13, 2018, 09:23:00 PM
Reply #6
  • Global Moderator
  • Legend Member
  • *****
  • Topic Author
  • Thank You: 10771
  • Reputation: 2174
  • Activity:
    100%
  • Country: in
  • Posts: 5356
  • Topics: 4424
  • Join Date: Jan 2014
  • ıllıllı ѕмoĸιng ιѕ good ғor нealтн ıllıllı :)
Please also upload TOY STORY TRILOGY in 1080p Dual Audio bcoz all previous links are dead.
Will Do ASAP

Don't walk as you are king, walk as you don't care who the king is....!!

Tags:
 

Related Topics





Back to top