+ ShareSpark.net »  :::: Bollywood Zone » Indian PC Videos
|- Raazi (2018) Bollywood Movie All Video Music Album 1080p Bluray x264 DTS-HDMA 5.1 By ~MaLiK ZEE~


Electroncs Sale

Raazi (2018) Bollywood Movie All Video Music Album 1080p Bluray x264 DTS-HDMA 5.1 By ~MaLiK ZEE~

0 Members and 1 Guest are viewing this topic.

September 11, 2018, 03:00:38 AM
Raazi (2018) Bollywood Movie All Video Music Album 1080p Bluray x264 DTS-HDMA 5.1 By ~MaLiK ZEE~


~♥ BollyWooD MoviE ♥~
(Raazi 2018)

Quote

Specs ♪♫
General
Format                      : Matroska
Format version              : Version 4 / Version 2
File size                   : 1.57 GB
Overall bit rate            : 14.5 Mb/s
Encoded date                : UTC 2018-09-05 17:41:26
Writing application         : mkvmerge v25.0.0 ('Prog Noir') 64-bit
Writing library             : libebml v1.3.6 + libmatroska v1.4.9


♪ Video ♪
ID                          : 1
Format                      : AVC
Format/Info                 : Advanced Video Codec
Format profile              : [email protected]
Format settings             : CABAC / 5 Ref Frames
Format settings, CABAC      : Yes
Format settings, ReFrames   : 5 frames
Codec ID                    : V_MPEG4/ISO/AVC
Bit rate                    : 9 940 kb/s
Width                       : 1 920 pixels
Height                      : 800 pixels
Display aspect ratio        : 2.40:1
Frame rate mode             : Constant
Frame rate                  : 24.000 FPS
Color space                 : YUV
Chroma subsampling          : 4:2:0
Bit depth                   : 8 bits
Scan type                   : Progressive
Bits/(Pixel*Frame)          : 0.270
Stream size                 : 312 MiB (69%)
Title                       : ~MaLiK ZEE~
Language                    : English
Default                     : Yes
Forced                      : No
Color range                 : Limited
Color primaries             : BT.709
Transfer characteristics    : BT.709
Matrix coefficients         : BT.709

♫ Audio ♫
ID                          : 2
Format                      : DTS
Format/Info                 : Digital Theater Systems
Format profile              : MA / Core
Codec ID                    : A_DTS
Bit rate mode               : Variable / Constant
Bit rate                    : 4 544 kb/s / 1 509 kb/s
Channel(s)                  : 6 channels
Channel positions           : Front: L C R, Side: L R, LFE
Sampling rate               : 48.0 kHz
Frame rate                  : 93.750 FPS (512 SPF)
Bit depth                   : 24 bits
Compression mode            : Lossless / Lossy
Delay relative to video     : 7 ms
Stream size                 : 143 MiB (31%)
Title                       : ~MaLiK ZEE~
Language                    : Hindi
Default                     : Yes
Forced                      : No

English Subtitles : Yes
Chapters : Yes

Ripped By ~MaLiK ZEE~

 :ss:



























 :download:

Google Drive

Quote
01-Raazi 1

02-Dilbaro

03-Raazi 2

04-Ae Watan 1

05-Ae Watan 2

06-Ae Watan End Roll
:download:
Zip File
Quote



Share this topic on FacebookShare this topic on GoogleShare this topic on MySpaceShare this topic on TwitterShare this topic on Yahoo

« Last Edit: November 18, 2018, 02:57:11 PM by 【M】【A】【L】【I】【K】 【Z】【E】【E】 »


Thanks given by:


Tags:
 

Related Topics





Back to top