+ ShareSpark.net »  :::: Bollywood Zone » Indian PC Videos
|- 2.0 (2018) (Hindi) - HD Teaser Trailer [720p]


Mastercard 10% Off

2.0 (2018) (Hindi) - HD Teaser Trailer [720p]

0 Members and 1 Guest are viewing this topic.

September 13, 2018, 04:43:35 PM
  • Team SSX
  • Special Member
  • ***
  • Topic Author
  • Thank You: 124
  • Reputation: 19
  • Activity:
    18.4%
  • Country: pk
  • Posts: 722
  • Topics: 494
  • Join Date: Nov 2012
  • Upgrade My Reputation







IMDB:
Code: [Select]
https://www.imdb.com/title/tt5080556/
Release Info:
Code: [Select]
Complete name                            : 2.0.2018.Hindi.HD.Teaser.Trailer.720p.By.Rj.Rabasha.mp4
Format                                   : MPEG-4
Format profile                           : Base Media / Version 2
Codec ID                                 : mp42 (isom/mp42)
File size                                : 21.8 MiB
Duration                                 : 1 min 31 s
Overall bit rate mode                    : Variable
Overall bit rate                         : 2 002 kb/s
Encoded date                             : UTC 2018-09-13 07:54:26
Tagged date                              : UTC 2018-09-13 07:54:26
gsst                                     : 0
gstd                                     : 91347

Video
ID                                       : 1
Format                                   : AVC
Format/Info                              : Advanced Video Codec
Format profile                           : [email protected]
Format settings                          : CABAC / 3 Ref Frames
Format settings, CABAC                   : Yes
Format settings, ReFrames                : 3 frames
Codec ID                                 : avc1
Codec ID/Info                            : Advanced Video Coding
Duration                                 : 1 min 31 s
Bit rate                                 : 1 873 kb/s
Width                                    : 1 280 pixels
Height                                   : 720 pixels
Display aspect ratio                     : 16:9
Frame rate mode                          : Constant
Frame rate                               : 24.000 FPS
Color space                              : YUV
Chroma subsampling                       : 4:2:0
Bit depth                                : 8 bits
Scan type                                : Progressive
Bits/(Pixel*Frame)                       : 0.085
Stream size                              : 20.4 MiB (94%)
Encoded date                             : UTC 2018-09-13 07:54:26
Tagged date                              : UTC 2018-09-13 07:54:26
Color range                              : Limited
Color primaries                          : BT.709
Transfer characteristics                 : BT.709
Matrix coefficients                      : BT.709

Audio
ID                                       : 2
Format                                   : AAC
Format/Info                              : Advanced Audio Codec
Format profile                           : LC
Codec ID                                 : mp4a-40-2
Duration                                 : 1 min 31 s
Bit rate mode                            : Variable
Bit rate                                 : 126 kb/s
Channel(s)                               : 2 channels
Channel positions                        : Front: L R
Sampling rate                            : 44.1 kHz
Frame rate                               : 43.066 FPS (1024 SPF)
Compression mode                         : Lossy
Stream size                              : 1.37 MiB (6%)
Language                                 : Hindi
Encoded date                             : UTC 2018-09-13 07:54:26
Tagged date                              : UTC 2018-09-13 07:54:26

















Code: [Select]
https://openload.co/f/uPxkhhZ8s6U


Code: [Select]
https://bdupload.info/n0xdgkqqdliu


Code: [Select]
http://www.indishare.me/l6pl8qfoo3ff


Code: [Select]
https://uptobox.com/ljctaoadrq5n



Code: [Select]
https://vidoza.net/j60r9y74fkdb.html






Share this topic on FacebookShare this topic on GoogleShare this topic on MySpaceShare this topic on TwitterShare this topic on Yahoo

« Last Edit: September 13, 2018, 04:45:13 PM by Rabasha »


Thanks given by:


Tags: robot 
 

Related Topics





Back to top