+ ShareSpark.net »  :::: Hollywood Zone » Hollywood Movies (Pre Releases)
|- Alpha (2018) 720p HDCAM x264 (WM-Spam) [2.44GB+565MB=1 Link]


10% SBI and 10% Discount

Alpha (2018) 720p HDCAM x264 (WM-Spam) [2.44GB+565MB=1 Link]

0 Members and 1 Guest are viewing this topic.

September 18, 2018, 08:25:58 PM
  • Team SSX
  • Special Member
  • ***
  • Topic Author
  • Thank You: 125
  • Reputation: 19
  • Activity:
    18.4%
  • Country: pk
  • Posts: 722
  • Topics: 494
  • Join Date: Nov 2012
  • Upgrade My Reputation







IMDB:
Code: [Select]
https://www.imdb.com/title/tt4244998/
Release Info:
Code: [Select]
Complete name                            : Alpha.2018.HDCAM.x264.2.44GB.By.Rj.Rabasha.mp4
Format                                   : MPEG-4
Format profile                           : Base Media / Version 2
Codec ID                                 : mp42 (mp42/isom/avc1)
File size                                : 2.44 GiB
Duration                                 : 1 h 29 min
Overall bit rate mode                    : Variable
Overall bit rate                         : 3 882 kb/s
Encoded date                             : UTC 2018-08-19 08:40:57
Tagged date                              : UTC 2018-08-19 08:40:57
Writing application                      : TMPGEnc Video Mastering Works 6 Version. 6.2.2.29
 
Video
ID                                       : 2
Format                                   : AVC
Format/Info                              : Advanced Video Codec
Format profile                           : [email protected]
Format settings                          : CABAC / 7 Ref Frames
Format settings, CABAC                   : Yes
Format settings, RefFrames               : 7 frames
Codec ID                                 : avc1
Codec ID/Info                            : Advanced Video Coding
Duration                                 : 1 h 29 min
Source duration                          : 1 h 29 min
Bit rate mode                            : Variable
Bit rate                                 : 3 661 kb/s
Maximum bit rate                         : 18.0 Mb/s
Width                                    : 1 072 pixels
Height                                   : 592 pixels
Display aspect ratio                     : 16:9
Frame rate mode                          : Constant
Frame rate                               : 29.970 (30000/1001) FPS
Standard                                 : Component
Color space                              : YUV
Chroma subsampling                       : 4:2:0
Bit depth                                : 8 bits
Scan type                                : Progressive
Bits/(Pixel*Frame)                       : 0.192
Stream size                              : 2.30 GiB (94%)
Source stream size                       : 2.30 GiB (94%)
Writing library                          : x264 core 148
Encoding settings                        : cabac=1 / ref=7 / deblock=1:0:0 / analyse=0x3:0x113 / me=hex / subme=7 / psy=1 / psy_rd=1.00:0.00 / mixed_ref=1 / me_range=16 / chroma_me=1 / trellis=1 / 8x8dct=1 / cqm=1 / deadzone=21,11 / fast_pskip=1 / chroma_qp_offset=-2 / threads=12 / lookahead_threads=2 / sliced_threads=0 / slices=1 / nr=0 / decimate=1 / interlaced=0 / minigop=0 / stitchable=1 / constrained_intra=0 / bframes=3 / b_pyramid=0 / b_adapt=1 / b_bias=0 / direct=1 / weightb=1 / open_gop=0 / weightp=2 / keyint=250 / keyint_min=25 / scenecut=40 / intra_refresh=0 / rc_lookahead=40 / rc=abr / mbtree=1 / bitrate=3661 / ratetol=1.0 / qcomp=0.60 / qpmin=3 / qpmax=69 / qpstep=4 / vbv_maxrate=18000 / vbv_bufsize=18000 / nal_hrd=vbr / filler=0 / ip_ratio=1.40 / aq=1:1.00
Encoded date                             : UTC 2018-08-19 08:40:57
Tagged date                              : UTC 2018-08-19 08:40:57
Color range                              : Limited
Color primaries                          : BT.709
Transfer characteristics                 : BT.709
Matrix coefficients                      : BT.709
 
Audio
ID                                       : 1
Format                                   : AC-3
Format/Info                              : Audio Coding 3
Codec ID                                 : ac-3
Duration                                 : 1 h 29 min
Bit rate mode                            : Constant
Bit rate                                 : 224 kb/s
Channel(s)                               : 2 channels
Channel positions                        : Front: L R
Sampling rate                            : 48.0 kHz
Frame rate                               : 31.250 FPS (1536 SPF)
Bit depth                                : 16 bits
Compression mode                         : Lossy
Stream size                              : 144 MiB (6%)
Service kind                             : Complete Main
Default                                  : Yes
Alternate group                          : 1
Encoded date                             : UTC 2018-08-19 08:40:57
Tagged date                              : UTC 2018-08-19 08:40:57
Subtitles                                : N/A

Plot: An epic adventure set in the last Ice Age, ALPHA tells a fascinating, visually stunning story that shines a light on the origins of man’s best friend. While on his first hunt with his tribe’s most elite group, a young man is injured and must learn to survive alone in the wilderness. Reluctantly taming a lone wolf abandoned by its pack, the pair learn to rely on each other and become unlikely allies, enduring countless dangers and overwhelming odds in order to find their way home before winter arrives.

Genre: Adventure | Drama | Family
Directed by: Albert Hughes
Starring: Kodi Smit-McPhee, Natassia Malthe, Leonor Varela


Note: - Watermark Spam In This Movie





















1GB Each Part
Code: [Select]
https://openload.co/f/FTMfzUMtEpM/Backup1.Alpha.2018.HDCAM.x264.2.44GB.By.Rj.Rabasha.part1.rar
https://openload.co/f/BRrZat2EZIg/Backup1.Alpha.2018.HDCAM.x264.2.44GB.By.Rj.Rabasha.part2.rar
https://openload.co/f/qDmjxIdpCcU/Backup1.Alpha.2018.HDCAM.x264.2.44GB.By.Rj.Rabasha.part3.rar



1GB Each Part
Code: [Select]
https://bdupload.info/vlmyb3m6yzrx
https://bdupload.info/qn546p0x37vw
https://bdupload.info/v8dr41hc38vv



1GB Each Part
Code: [Select]
http://www.indishare.me/65j8312cbnt9
http://www.indishare.me/fq1fxdqvw7dt
http://www.indishare.me/ynv0did7sf7e



1 Link 2.45GB
Code: [Select]
https://uptobox.com/xu6ht52u5yqw/Backup1.Alpha.2018.HDCAM.x264.2.44GB.By.Rj.Rabasha.mp4



1 Link 565MB
Code: [Select]
https://vidoza.net/92ty10kjxh2r.html








Share this topic on FacebookShare this topic on GoogleShare this topic on MySpaceShare this topic on TwitterShare this topic on Yahoo




Tags: alpha 
 

Related Topics

  Subject / Started by Replies Last post
1 Replies
1103 Views
Last post September 18, 2018, 07:03:44 PM
by Rabasha
0 Replies
340 Views
Last post September 18, 2018, 06:40:17 PM
by Rabasha
0 Replies
669 Views
Last post September 18, 2018, 09:12:14 PM
by Rabasha
0 Replies
723 Views
Last post September 20, 2018, 05:09:26 AM
by Rabasha
0 Replies
1305 Views
Last post September 24, 2018, 04:05:44 AM
by Rabasha




Back to top