+ ShareSpark.net »  :::: Bollywood Zone » Indian PC Videos
|- Mohabbatein (2000) Bollywood Movie Music Album 1080p BluRay x264 DTS-HDMA 5.1 By ~MaLiK ZEE~


Amazon Fashion
  • Mohabbatein (2000) Bollywood Movie Music Album 1080p BluRay x264 DTS-HDMA 5.1 By ~MaLiK ZEE~ 5 1
Currently:  

Mohabbatein (2000) Bollywood Movie Music Album 1080p BluRay x264 DTS-HDMA 5.1 By ~MaLiK ZEE~

0 Members and 1 Guest are viewing this topic.

September 28, 2018, 03:58:05 AM
Mohabbatein (2000) Bollywood Movie Music Album 1080p BluRay x264 DTS-HDMA 5.1 By ~MaLiK ZEE~


~♥ BollyWooD MoviE ♥~
(Mohabbatein 2000)

Quote

Specs ♪♫
General
Format                      : Matroska
Format version              : Version 4 / Version 2
File size                   : 4.64 GB
Overall bit rate            : 11.4 Mb/s
Encoded date                : UTC 2018-09-27 00:40:06
Writing application         : mkvmerge v25.0.0 ('Prog Noir') 64-bit
Writing library             : libebml v1.3.6 + libmatroska v1.4.9

♪ Video ♪
ID                          : 1
Format                      : AVC
Format/Info                 : Advanced Video Codec
Format profile              : [email protected]
Format settings             : CABAC / 5 Ref Frames
Format settings, CABAC      : Yes
Format settings, ReFrames   : 5 frames
Codec ID                    : V_MPEG4/ISO/AVC
Bit rate                    : 9 018 kb/s
Width                       : 1 920 pixels
Height                      : 816 pixels
Display aspect ratio        : 2.35:1
Frame rate mode             : Constant
Frame rate                  : 24.000 FPS
Color space                 : YUV
Chroma subsampling          : 4:2:0
Bit depth                   : 8 bits
Scan type                   : Progressive
Bits/(Pixel*Frame)          : 0.240
Stream size                 : 450 MiB (79%)
Language                    : English
Default                     : Yes
Forced                      : No
Color range                 : Limited
Color primaries             : BT.709
Transfer characteristics    : BT.709
Matrix coefficients         : BT.709

♫ Audio ♫
ID                          : 2
Format                      : DTS
Format/Info                 : Digital Theater Systems
Format profile              : MA / Core
Codec ID                    : A_DTS
Bit rate mode               : Variable / Constant
Bit rate                    : 2 384 kb/s / 1 509 kb/s
Channel(s)                  : 6 channels
Channel positions           : Front: L C R, Side: L R, LFE
Sampling rate               : 48.0 kHz
Frame rate                  : 93.750 FPS (512 SPF)
Bit depth                   : 16 bits
Compression mode            : Lossless / Lossy
Delay relative to video     : 3 ms
Stream size                 : 119 MiB (21%)
Title                       : By~MaLiK ZEE~
Language                    : Hindi
Default                     : Yes
Forced                      : No

English & Arabic Subtitles : Yes
Chapters : Yes

Ripped By ~MaLiK ZEE~

 :ss:

































 :download:

Google Drive

Quote
01-Chalte Chalte [By ~MaLiK ZEE~]

02-Soni Soni [By ~MaLiK ZEE~]

03-Aankhein Khuli [By ~MaLiK ZEE~]

04-Best Couple Dance [By ~MaLiK ZEE~]

05-Humko Humise Chura Lo [By ~MaLiK ZEE~]

06-Pairo Mein Bandhan Hai [By ~MaLiK ZEE~]

07-Humko Humise Chura Lo End Roll [By ~MaLiK ZEE~]





Share this topic on FacebookShare this topic on GoogleShare this topic on MySpaceShare this topic on TwitterShare this topic on Yahoo

« Last Edit: January 09, 2019, 01:44:49 PM by 【M】【A】【L】【I】【K】 【Z】【E】【E】 »


Thanks given by:


September 29, 2018, 10:41:10 AM
Reply #1
  • Newbie
  • **
  • Thank You: 0
  • Reputation: 0
  • Activity:
    0.2%
  • Country: pk
  • Posts: 4
  • Topics: 0
  • Join Date: Feb 2014
  • ShareSpark Member

January 10, 2019, 12:53:58 AM
Reply #2
  • Begginer
  • **
  • Thank You: 1
  • Reputation: 7
  • Activity:
    6%
  • Country: in
  • Posts: 60
  • Topics: 1
  • Join Date: Sep 2015
  • ShareSpark Member

Tags:
 

Related Topics





Back to top