+ ShareSpark.net »  :::: Bollywood Zone » Regional Movies » Punjabi Movies
|- Daana Paani 2018 x264 720p HD Punjabi GOPISAHI


Electroncs Sale

Daana Paani 2018 x264 720p HD Punjabi GOPISAHI

0 Members and 1 Guest are viewing this topic.

October 03, 2018, 04:14:44 PM
  • ***************
  • Team SSX
  • Legend Member
  • ***
  • Topic Author
  • Thank You: 1778
  • Reputation: 546
  • Activity:
    100%
  • Country: pk
  • Posts: 1872
  • Topics: 1163
  • Join Date: Mar 2015
  • =$ Success Never Ends $=
Daana Paani 2018 x264 720p HD Punjabi GOPISAHI










Format : Matroska
Format version : Version 4 / Version 2
File size : 525 MiB
Duration : 1 h 45 min
Overall bit rate : 695 kb/s
Movie name : Daana Paani 2018 GOPISAHI

Video
Format : AVC
Format/Info : Advanced Video Codec
Codec ID : V_MPEG4/ISO/AVC
Duration : 1 h 45 min
Bit rate : 599 kb/s
Width : 1 280 pixels
Height : 536 pixels
Display aspect ratio : 2.40:1
Frame rate mode : Constant
Frame rate : 24.000 FPS
Color space : YUV
Chroma subsampling : 4:2:0
Bit depth : 8 bits
Scan type : Progressive
Bits/(Pixel*Frame) : 0.036
Stream size : 452 MiB (86%)
Title : GOPISAHI
Writing library : x264 core 155 r2901 7d0ff22

Audio
Format : AAC
Format/Info : Advanced Audio Codec
Duration : 1 h 45 min
Bit rate : 96.0 kb/s
Channel(s) : 2 channels
Channel positions : Front: L R
Sampling rate : 48.0 kHz
Frame rate : 46.875 FPS (1024 SPF)
Compression mode : Lossy
Delay relative to video : -21 ms
Stream size : 71.3 MiB (14%)
Title : GOPISAHI
Language : Panjabi




 :ss:









 :download:


























Share this topic on FacebookShare this topic on GoogleShare this topic on MySpaceShare this topic on TwitterShare this topic on Yahoo



Thanks given by:


Tags:
 

Related Topics

  Subject / Started by Replies Last post
1 Replies
1286 Views
Last post February 12, 2018, 08:26:57 AM
by Changezi
0 Replies
854 Views
Last post July 19, 2018, 11:52:31 AM
by shahzaibjaan
0 Replies
739 Views
Last post August 01, 2018, 06:31:14 PM
by shahzaibjaan
1 Replies
973 Views
Last post September 01, 2018, 11:03:54 AM
by 【M】【A】【L】【I】【K】 【Z】【E】【E】
0 Replies
469 Views
Last post October 23, 2018, 03:25:18 PM
by shahzaibjaan




Back to top