+ ShareSpark.net »  :::: Bollywood Zone » Indian PC Videos
|- Azhar (2016) Bollywood Movie All Video Music Album 1080p Blu-ray x264 TrueHD ATMOS 7.1 By ~MaLiK ZEE


10% SBI and 10% Discount

Azhar (2016) Bollywood Movie All Video Music Album 1080p Blu-ray x264 TrueHD ATMOS 7.1 By ~MaLiK ZEE

0 Members and 1 Guest are viewing this topic.

October 05, 2018, 10:54:07 AM
Azhar (2016) Bollywood Movie All Video Music Album 1080p Blu-ray x264 TrueHD ATMOS 7.1 By ~MaLiK ZEE~


~♥ BollyWooD MoviE ♥~
(Azhar 2016)

Quote

Specs ♪♫
General
Format                      : Matroska
Format version              : Version 4 / Version 2
File size                   : 1.03 GB
Overall bit rate mode       : Variable
Overall bit rate            : 9 222 kb/s
Encoded date                : UTC 2018-10-03 15:13:18
Writing application         : mkvmerge v25.0.0 ('Prog Noir') 64-bit
Writing library             : libebml v1.3.6 + libmatroska v1.4.9

♪ Video ♪
ID                          : 1
Format                      : AVC
Format/Info                 : Advanced Video Codec
Format profile              : [email protected]
Format settings             : CABAC / 5 Ref Frames
Format settings, CABAC      : Yes
Format settings, ReFrames   : 5 frames
Codec ID                    : V_MPEG4/ISO/AVC
Bit rate                    : 3 280 kb/s
Width                       : 1 920 pixels
Height                      : 816 pixels
Display aspect ratio        : 2.35:1
Frame rate mode             : Constant
Frame rate                  : 24.000 FPS
Color space                 : YUV
Chroma subsampling          : 4:2:0
Bit depth                   : 8 bits
Scan type                   : Progressive
Bits/(Pixel*Frame)          : 0.087
Stream size                 : 77.7 MiB (36%)
Language                    : English
Default                     : Yes
Forced                      : No
Color range                 : Limited
Color primaries             : BT.709
Transfer characteristics    : BT.709
Matrix coefficients         : BT.709

♫ Audio ♫
Audio #1
ID                          : 2
Format                      : TrueHD
Format profile              : TrueHD+Atmos / TrueHD
Codec ID                    : A_TRUEHD
Bit rate mode               : Variable
Bit rate                    : 5 218 kb/s
Maximum bit rate            : 7 260 kb/s
Channel(s)                  : Object Based / 8 channels
Channel positions           : Object Based / Front: L C R, Side: L R, Back: L R, LFE
Sampling rate               :  / 48.0 kHz
Frame rate                  : 1 200.000 FPS (40 SPF)
Compression mode            : Lossless
Stream size                 : 124 MiB (57%)
Title                       : By ~MaLiK ZEE~ 1
Language                    : Hindi
Default                     : Yes
Forced                      : No

Audio #2
ID                          : 3
Format                      : AC-3
Format/Info                 : Audio Coding 3
Codec ID                    : A_AC3
Bit rate mode               : Constant
Bit rate                    : 640 kb/s
Channel(s)                  : 6 channels
Channel positions           : Front: L C R, Side: L R, LFE
Sampling rate               : 48.0 kHz
Frame rate                  : 31.250 FPS (1536 SPF)
Bit depth                   : 16 bits
Compression mode            : Lossy
Delay relative to video     : 30 ms
Stream size                 : 15.2 MiB (7%)
Title                       : By ~MaLiK ZEE~ 2
Language                    : Hindi
Service kind                : Complete Main
Default                     : No
Forced                      : No

English Subtitles : Yes
Chapters : No

Ripped By ~MaLiK ZEE~

 :ss:




















 :download:

Google Drive

Quote
01-Itni Si Baat [By ~MaLiK ZEE~]

02-Oye Oye [By ~MaLiK ZEE~]

03-Bol Do Na Zara [By ~MaLiK ZEE~]

04-Tu Hi Na Jaane [By ~MaLiK ZEE~]

05-Jeetne Ke Liye [By ~MaLiK ZEE~]

06-Jeetne Ke Liye End Roll [By ~MaLiK ZEE~]





Share this topic on FacebookShare this topic on GoogleShare this topic on MySpaceShare this topic on TwitterShare this topic on Yahoo



Thanks given by:


October 09, 2018, 09:43:01 PM
Reply #1
  • Semi Newbie
  • **
  • Thank You: 0
  • Reputation: 2
  • Activity:
    4.6%
  • Country: in
  • Posts: 42
  • Topics: 0
  • Join Date: Oct 2017
  • ShareSpark Member
Full Of virus in these files !!!!!!! Can't play in mx player !!!!!!

October 12, 2018, 04:50:09 AM
Reply #2

Tags:
 

Related Topics





Back to top