+ ShareSpark.net »  :::: Bollywood Zone » Indian PC Videos
|- Azhar (2016) Bollywood Movie All Video Music Album Blu-ray AVC TrueHD ATMOS 7.1 By ~MaLiK ZEE~


100% Bill Offer

Azhar (2016) Bollywood Movie All Video Music Album Blu-ray AVC TrueHD ATMOS 7.1 By ~MaLiK ZEE~

0 Members and 1 Guest are viewing this topic.

October 05, 2018, 11:12:17 AM
Azhar (2016) Bollywood Movie All Video Music Album Blu-ray AVC TrueHD ATMOS 7.1 By ~MaLiK ZEE~


~♥ BollyWooD MoviE ♥~
(Azhar 2016)

Quote

Specs ♪♫
General
Format                      : Matroska
Format version              : Version 4 / Version 2
File size                   : 4.07 GB
Overall bit rate mode       : Variable
Overall bit rate            : 40.0 Mb/s
Encoded date                : UTC 2018-10-03 15:01:50
Writing application         : mkvmerge v25.0.0 ('Prog Noir') 64-bit
Writing library             : libebml v1.3.6 + libmatroska v1.4.9

♪ Video ♪
ID                          : 1
Format                      : AVC
Format/Info                 : Advanced Video Codec
Format profile              : [email protected]
Format settings             : CABAC / 4 Ref Frames
Format settings, CABAC      : Yes
Format settings, ReFrames   : 4 frames
Codec ID                    : V_MPEG4/ISO/AVC
Bit rate mode               : Constant
Bit rate                    : 35.0 Mb/s
Width                       : 1 920 pixels
Height                      : 1 080 pixels
Display aspect ratio        : 16:9
Frame rate mode             : Constant
Frame rate                  : 24.000 FPS
Color space                 : YUV
Chroma subsampling          : 4:2:0
Bit depth                   : 8 bits
Scan type                   : Progressive
Bits/(Pixel*Frame)          : 0.703
Stream size                 : 806 MiB (85%)
Language                    : English
Default                     : Yes
Forced                      : No

♫ Audio ♫

Audio #1
ID                          : 2
Format                      : TrueHD
Format profile              : TrueHD+Atmos / TrueHD
Codec ID                    : A_TRUEHD
Bit rate mode               : Variable
Bit rate                    : 5 218 kb/s
Maximum bit rate            : 7 260 kb/s
Channel(s)                  : Object Based / 8 channels
Channel positions           : Object Based / Front: L C R, Side: L R, Back: L R, LFE
Sampling rate               :  / 48.0 kHz
Frame rate                  : 1 200.000 FPS (40 SPF)
Compression mode            : Lossless
Stream size                 : 124 MiB (57%)
Title                       : By ~MaLiK ZEE~ 1
Language                    : Hindi
Default                     : Yes
Forced                      : No

Audio #2
ID                          : 3
Format                      : AC-3
Format/Info                 : Audio Coding 3
Codec ID                    : A_AC3
Bit rate mode               : Constant
Bit rate                    : 640 kb/s
Channel(s)                  : 6 channels
Channel positions           : Front: L C R, Side: L R, LFE
Sampling rate               : 48.0 kHz
Frame rate                  : 31.250 FPS (1536 SPF)
Bit depth                   : 16 bits
Compression mode            : Lossy
Delay relative to video     : 30 ms
Stream size                 : 15.2 MiB (7%)
Title                       : By ~MaLiK ZEE~ 2
Language                    : Hindi
Service kind                : Complete Main
Default                     : No
Forced                      : No

English Subtitles : Yes
Chapters : No

Ripped By ~MaLiK ZEE~

 :ss:




















 :download:

Google Drive

Quote
01-Itni Si Baat [By ~MaLiK ZEE~]

02-Oye Oye [By ~MaLiK ZEE~]

03-Bol Do Na Zara [By ~MaLiK ZEE~]

04-Tu Hi Na Jaane [By ~MaLiK ZEE~]

05-Jeetne Ke Liye [By ~MaLiK ZEE~]

06-Jeetne Ke Liye End Roll [By ~MaLiK ZEE~]





Share this topic on FacebookShare this topic on GoogleShare this topic on MySpaceShare this topic on TwitterShare this topic on Yahoo

« Last Edit: January 09, 2019, 01:53:28 PM by 【M】【A】【L】【I】【K】 【Z】【E】【E】 »


Thanks given by:


April 17, 2019, 09:39:08 PM
Reply #1
  • Semi Newbie
  • **
  • Thank You: 0
  • Reputation: 1
  • Activity:
    0.6%
  • Country: in
  • Posts: 7
  • Topics: 0
  • Join Date: Mar 2016
  • ShareSpark Member

Tags:
 

Related Topics





Back to top