+ ShareSpark.net »  :::: Bollywood Zone » Bollywood Movies (Original Rips)
|- Fanney Khan (2018) Hindi 720p UntoucheD WEB-DL x264 AAC ESub


Mastercard 10% Off

Fanney Khan (2018) Hindi 720p UntoucheD WEB-DL x264 AAC ESub

0 Members and 1 Guest are viewing this topic.

October 12, 2018, 12:55:26 AM
  • Begginer
  • **
  • Topic Author
  • Thank You: 112
  • Reputation: 22
  • Activity:
    3.6%
  • Country: in
  • Posts: 96
  • Topics: 87
  • Join Date: Feb 2018
  • ShareSpark Member
Fanney Khan 2018 Hindi 720p HD AVC MP4 UNTOUCHED x264 2.7GB ESubs



Format                                   : MPEG-4
Format profile                           : Base Media
Codec ID                                 : isom (mp41)
File size                                : 2.75 GiB
Duration                                 : 2 h 8 min
Overall bit rate mode                    : Variable
Overall bit rate                         : 3 064 kb/s
Encoded date                             : UTC 2018-10-11 15:32:02
Tagged date                              : UTC 2018-10-11 15:32:02
Writing application                      : Bandicam 4.2.0.1439 / GDI
FileExtension_Invalid                    : mov mp4 m4v m4a m4b m4p 3ga 3gpa 3gpp 3gp 3gpp2 3g2 k3g jpm jpx mqv ismv isma ismt f4a f4b f4v

Video
ID                                       : 1
Format                                   : AVC
Format/Info                              : Advanced Video Codec
Format profile                           : [email protected]
Format settings                          : 1 Ref Frames
Format settings, CABAC                   : No
Format settings, ReFrames                : 1 frame
Codec ID                                 : avc1
Codec ID/Info                            : Advanced Video Coding
Duration                                 : 2 h 8 min
Bit rate                                 : 2 962 kb/s
Width                                    : 1 280 pixels
Height                                   : 720 pixels
Display aspect ratio                     : 16:9
Frame rate mode                          : Variable
Frame rate                               : 23.976 (23976/1000) FPS
Minimum frame rate                       : 7.992 FPS
Maximum frame rate                       : 24.000 FPS
Color space                              : YUV
Chroma subsampling                       : 4:2:0
Bit depth                                : 8 bits
Scan type                                : Progressive
Bits/(Pixel*Frame)                       : 0.134
Stream size                              : 2.66 GiB (97%)
Language                                 : English
Encoded date                             : UTC 2018-10-11 15:32:02
Tagged date                              : UTC 2018-10-11 15:32:02

Audio
ID                                       : 2
Format                                   : AAC
Format/Info                              : Advanced Audio Codec
Format profile                           : LC
Codec ID                                 : mp4a-40-2
Duration                                 : 2 h 8 min
Bit rate mode                            : Variable
Bit rate                                 : 98.3 kb/s
Maximum bit rate                         : 214 kb/s
Channel(s)                               : 2 channels
Channel positions                        : Front: L R
Sampling rate                            : 48.0 kHz
Frame rate                               : 46.875 FPS (1024 SPF)
Compression mode                         : Lossy
Stream size                              : 90.5 MiB (3%)
Language                                 : English
Encoded date                             : UTC 2018-10-11 15:32:02
Tagged date                              : UTC 2018-10-11 15:32:02







Share this topic on FacebookShare this topic on GoogleShare this topic on MySpaceShare this topic on TwitterShare this topic on Yahoo

« Last Edit: October 12, 2018, 01:11:56 AM by Katyayan »


Thanks given by:


Tags:
 

Related Topics





Back to top