+ ShareSpark.net »  :::: Bollywood Zone » Bollywood Movies (Original Rips) » High Resolution Movies
|- Fanney Khan 2018 Hindi 1080p AMZN WEB-DL H264 DDP5.1 - NbT


100% Bill Offer

Fanney Khan 2018 Hindi 1080p AMZN WEB-DL H264 DDP5.1 - NbT

0 Members and 1 Guest are viewing this topic.

October 12, 2018, 02:17:01 AM
  • Global Moderator
  • Legend Member
  • *****
  • Topic Author
  • Thank You: 11354
  • Reputation: 2275
  • Activity:
    100%
  • Country: in
  • Posts: 5499
  • Topics: 4532
  • Join Date: Jan 2014
  • ıllıllı ѕмoĸιng ιѕ good ғor нealтн ıllıllı :)


Fanney Khan 2018 Hindi 1080p AMZN WEB-DL H264 DDP5.1 - NbT

Quote
General
Format                      : Matroska
Format version              : Version 4
File size                   : 8.16 GiB
Duration                    : 2 h 9 min
Overall bit rate mode       : Variable
Overall bit rate            : 9 040 kb/s
Encoded date                : UTC 2018-10-11 16:59:10
Writing application         : mkvmerge v27.0.0 ('Metropolis') 64-bit
Writing library             : libebml v1.3.6 + libmatroska v1.4.9
Cover                       : Yes
Attachments                 : cover.jpg

Video
ID                          : 1
Format                      : AVC
Format/Info                 : Advanced Video Codec
Format profile              : [email protected]
Format settings             : CABAC / 4 Ref Frames
Format settings, CABAC      : Yes
Format settings, ReFrames   : 4 frames
Codec ID                    : V_MPEG4/ISO/AVC
Duration                    : 2 h 9 min
Bit rate mode               : Variable
Bit rate                    : 8 398 kb/s
Maximum bit rate            : 15.0 Mb/s
Width                       : 1 920 pixels
Height                      : 816 pixels
Display aspect ratio        : 2.35:1
Frame rate mode             : Constant
Frame rate                  : 24.000 FPS
Color space                 : YUV
Chroma subsampling          : 4:2:0
Bit depth                   : 8 bits
Scan type                   : Progressive
Bits/(Pixel*Frame)          : 0.223
Stream size                 : 7.58 GiB (93%)
Default                     : Yes
Forced                      : No
Color range                 : Limited
Color primaries             : BT.709
Transfer characteristics    : BT.709
Matrix coefficients         : BT.709

Audio
ID                          : 2
Format                      : E-AC-3
Format/Info                 : Enhanced AC-3
Commercial name             : Dolby Digital Plus
Codec ID                    : A_EAC3
Duration                    : 2 h 9 min
Bit rate mode               : Constant
Bit rate                    : 640 kb/s
Channel(s)                  : 6 channels
Channel layout              : L R C LFE Ls Rs
Sampling rate               : 48.0 kHz
Frame rate                  : 31.250 FPS (1536 SPF)
Compression mode            : Lossy
Stream size                 : 592 MiB (7%)
Title                       : Hindi
Language                    : Hindi
Service kind                : Complete Main
Default                     : No
Forced                      : No

Text
ID                          : 3
Format                      : UTF-8
Codec ID                    : S_TEXT/UTF8
Codec ID/Info               : UTF-8 Plain Text
Duration                    : 2 h 6 min
Bit rate                    : 49 b/s
Count of elements           : 2041
Stream size                 : 46.2 KiB (0%)
Title                       : English [SDH]
Language                    : English
Default                     : No
Forced                      : No







:download:

Quote


File Leeched & Uploaded From




Don't walk as you are king, walk as you don't care who the king is....!!
Never argue with an idiot. They drag you down to their level and then beat you with experience?

Share this topic on FacebookShare this topic on GoogleShare this topic on MySpaceShare this topic on TwitterShare this topic on Yahoo

« Last Edit: October 12, 2018, 02:23:19 AM by Rάήνίјάч1234 »



Don't walk as you are king, walk as you don't care who the king is....!!

October 12, 2018, 10:06:26 AM
Reply #1
  • Begginer
  • **
  • Thank You: 0
  • Reputation: 0
  • Activity:
    16.8%
  • Country: pk
  • Posts: 72
  • Topics: 0
  • Join Date: Feb 2017
  • ShareSpark Member

October 12, 2018, 10:52:35 AM
Reply #2
  • Hero Member
  • ***
  • Thank You: 0
  • Reputation: 7
  • Activity:
    10%
  • Country: au
  • Posts: 399
  • Topics: 0
  • Join Date: Oct 2017
  • ShareSpark Member

October 12, 2018, 10:07:51 PM
Reply #3
  • Devoted Member
  • **
  • Thank You: 0
  • Reputation: 7
  • Activity:
    37.6%
  • Country: in
  • Posts: 182
  • Topics: 0
  • Join Date: Sep 2018
  • ShareSpark Member

Tags:
 

Related Topics





Back to top