+ ShareSpark.net »  :::: Bollywood Zone » Indian PC Videos
|- Mirzya (2016) (MUSIC VIDEO ALBUM) Untouched - BD50 AVC DOLBY ATMOS TrueHD 7.1 ESuBS By ~MaLiK ZEE~


10% SBI and 10% Discount

Mirzya (2016) (MUSIC VIDEO ALBUM) Untouched - BD50 AVC DOLBY ATMOS TrueHD 7.1 ESuBS By ~MaLiK ZEE~

0 Members and 1 Guest are viewing this topic.

October 14, 2018, 09:54:03 AM
Mirzya (2016) (MUSIC VIDEO ALBUM) Untouched - BD50 AVC DOLBY ATMOS TrueHD 7.1 ESuBS By ~MaLiK ZEE~


~♥ BollyWooD MoviE ♥~
(Mirzya 2016)

Quote

Specs ♪♫
General
ID                          : 1 (0x1)
Format                      : M2ts
Format                      : BDAV
Format/Info                 : Blu-ray Video
File size                   : 10.0 GB
Overall bit rate mode       : Variable
Overall bit rate            : 40.0 Mb/s
Maximum Overall bit rate    : 35.5 Mb/s


♪ Video ♪
ID                          : 4113 (0x1011)
Menu ID                     : 1 (0x1)
Format                      : AVC
Format/Info                 : Advanced Video Codec
Format profile              : [email protected]
Format settings             : CABAC / 4 Ref Frames
Format settings, CABAC      : Yes
Format settings, ReFrames   : 4 frames
Codec ID                    : 27
Bit rate mode               : Constant
Bit rate                    : 37.7 Mb/s
Nominal bit rate            : 32.0 Mb/s
Width                       : 1 920 pixels
Height                      : 1 080 pixels
Display aspect ratio        : 16:9
Frame rate                  : 24.000 FPS
Color space                 : YUV
Chroma subsampling          : 4:2:0
Bit depth                   : 8 bits
Scan type                   : Progressive
Bits/(Pixel*Frame)          : 0.757
Stream size                 : 1.63 GiB (94%)

♫ Audio ♫

Audio #1
ID                          : 4352 (0x1100)
Menu ID                     : 1 (0x1)
Format                      : TrueHD / AC-3
Format profile              : TrueHD+Atmos / TrueHD / AC-3
Muxing mode                 : Stream extension
Codec ID                    : 131
Bit rate mode               : Variable / Constant
Bit rate                    : 384 kb/s
Maximum bit rate            : 7 548 kb/s
Channel(s)                  : Object Based / 8 channels / 6 channels
Channel positions           : Object Based / Front: L C R, Side: L R, Back: L R, LFE / Front: L C R, Side: L R, LFE
Sampling rate               :  / 48.0 kHz / 48.0 kHz
Frame rate                  : 31.250 FPS (1536 SPF)
Bit depth                   : 16 bits
Delay relative to video     : -76 ms
Stream size                 : 17.0 MiB (1%)
Language                    : Hindi
Service kind                : Complete Main

Audio #2
ID                          : 4353 (0x1101)
Menu ID                     : 1 (0x1)
Format                      : AC-3
Format/Info                 : Audio Coding 3
Codec ID                    : 129
Duration                    : 6 min 11 s
Bit rate mode               : Constant
Bit rate                    : 384 kb/s
Channel(s)                  : 6 channels
Channel positions           : Front: L C R, Side: L R, LFE
Sampling rate               : 48.0 kHz
Frame rate                  : 31.250 FPS (1536 SPF)
Bit depth                   : 16 bits
Compression mode            : Lossy
Delay relative to video     : -76 ms
Stream size                 : 17.0 MiB (1%)
Language                    : Hindi
Service kind                : Complete Main

English Subtitles : Yes
Chapters : No

Ripped By ~MaLiK ZEE~

 :ss:



















 :download:

Google Drive

Quote
01-Yeh Wadiyaan Doodiyan Kohre Ki [By ~MaLiK ZEE~]

02-Hota Hai [By ~MaLiK ZEE~]

03-Aave Re Hitchki [By ~MaLiK ZEE~]

04-Chakora [By ~MaLiK ZEE~]

05-Mirzya 1 [By ~MaLiK ZEE~]

06-Ek Nadi Thi 1 [By ~MaLiK ZEE~]

07-Ek Nadi Thi 2 [By ~MaLiK ZEE~]

08-Doli Re Doli [By ~MaLiK ZEE~]

09-Teen gwah Hai Ishq Ke [By ~MaLiK ZEE~]

10-Mirzya 2 [By ~MaLiK ZEE~]

11-Yeh Wadiyaan Doodiyan Kohre Ki End Roll [By ~MaLiK ZEE~]





Share this topic on FacebookShare this topic on GoogleShare this topic on MySpaceShare this topic on TwitterShare this topic on Yahoo



Thanks given by:


October 15, 2018, 03:42:16 PM
Reply #1
  • Semi Newbie
  • **
  • Thank You: 0
  • Reputation: 0
  • Activity:
    2%
  • Posts: 14
  • Topics: 0
  • Join Date: Mar 2013
  • ShareSpark Member

Tags:
 

Related Topics





Back to top