+ ShareSpark.net »  :::: Bollywood Zone » Indian PC Videos
|- Fanney Khan (2018) (MUSIC VIDEO ALBUM) 1080p WEB-DL H264 DDP 5.1 By ~MaLiK ZEE~


TV and Appliances

Fanney Khan (2018) (MUSIC VIDEO ALBUM) 1080p WEB-DL H264 DDP 5.1 By ~MaLiK ZEE~

0 Members and 1 Guest are viewing this topic.

October 14, 2018, 10:22:54 AM
Fanney Khan (2018) (MUSIC VIDEO ALBUM) 1080p WEB-DL H264 DDP 5.1 By ~MaLiK ZEE~


~♥ BollyWooD MoviE ♥~
(Fanney Khan 2018)

Quote

Specs ♪♫
General
Format                      : Matroska
Format version              : Version 4 / Version 2
File size                   : 2.00 GB
Overall bit rate mode       : Variable
Overall bit rate            : 15.2 Mb/s
Encoded date                : UTC 2018-10-13 07:15:41
Writing application         : mkvmerge v25.0.0 ('Prog Noir') 64-bit
Writing library             : libebml v1.3.6 + libmatroska v1.4.9

♪ Video ♪
ID                          : 1
Format                      : AVC
Format/Info                 : Advanced Video Codec
Format profile              : [email protected]
Format settings             : CABAC / 4 Ref Frames
Format settings, CABAC      : Yes
Format settings, ReFrames   : 4 frames
Codec ID                    : V_MPEG4/ISO/AVC
Bit rate mode               : Variable
Bit rate                    : 14.6 Mb/s
Maximum bit rate            : 15.0 Mb/s
Width                       : 1 920 pixels
Height                      : 816 pixels
Display aspect ratio        : 2.35:1
Frame rate mode             : Constant
Frame rate                  : 24.000 FPS
Color space                 : YUV
Chroma subsampling          : 4:2:0
Bit depth                   : 8 bits
Scan type                   : Progressive
Bits/(Pixel*Frame)          : 0.387
Stream size                 : 337 MiB (96%)
Language                    : English
Default                     : Yes
Forced                      : No
Color range                 : Limited
Color primaries             : BT.709
Transfer characteristics    : BT.709
Matrix coefficients         : BT.709

♫ Audio ♫
ID                          : 2
Format                      : E-AC-3
Format/Info                 : Enhanced Audio Coding 3
Codec ID                    : A_EAC3
Bit rate mode               : Constant
Bit rate                    : 640 kb/s
Channel(s)                  : 6 channels
Channel positions           : Front: L C R, Side: L R, LFE
Sampling rate               : 48.0 kHz
Frame rate                  : 187.500 FPS (256 SPF)
Compression mode            : Lossy
Delay relative to video     : 17 ms
Stream size                 : 14.8 MiB (4%)
Title                       : By~MaLiK ZEE~
Language                    : Hindi
Service kind                : Complete Main
Default                     : No
Forced                      : No

English Subtitles : Yes
Chapters : Yes

Ripped By ~MaLiK ZEE~

 :ss:
















 :download:

Google Drive

Quote
01-Zara Pass Aou [By~MaLiK ZEE~]

02-Mohabbat 1 [By~MaLiK ZEE~]

03-Fu Bai Fu [By~MaLiK ZEE~]

04-Achche Din 1 [By~MaLiK ZEE~]

05-Mohabbat 2 [By~MaLiK ZEE~]

06-Halka Halka [By~MaLiK ZEE~]

07-Tere Jaisa Tu Hai [By~MaLiK ZEE~]

08-Achche Din 2 [By~MaLiK ZEE~]

09-Tere Jaisa Tu Hai End Roll [By~MaLiK ZEE~]








Share this topic on FacebookShare this topic on GoogleShare this topic on MySpaceShare this topic on TwitterShare this topic on Yahoo



Thanks given by:


October 14, 2018, 10:32:43 AM
Reply #1
« Last Edit: November 24, 2018, 01:08:19 PM by Special26 »

October 14, 2018, 12:27:06 PM
Reply #2
  • Begginer
  • **
  • Thank You: 0
  • Reputation: 0
  • Activity:
    16.8%
  • Country: pk
  • Posts: 72
  • Topics: 0
  • Join Date: Feb 2017
  • ShareSpark Member

October 15, 2018, 03:41:00 PM
Reply #3
  • Semi Newbie
  • **
  • Thank You: 0
  • Reputation: 0
  • Activity:
    5%
  • Posts: 29
  • Topics: 0
  • Join Date: Mar 2013
  • ShareSpark Member

Tags:
 

Related Topics





Back to top