+ ShareSpark.net »  :::: Bollywood Zone » Bollywood Movies (Pre Releases)
|- Badhaai Ho 2018 Hindi 720p PRE-DVDRip x264 [MW]


Mastercard 10% Off

Badhaai Ho 2018 Hindi 720p PRE-DVDRip x264 [MW]

0 Members and 1 Guest are viewing this topic.

October 21, 2018, 02:13:21 PM
  • Legend Member
  • ****
  • Topic Author
  • Thank You: 1604
  • Reputation: 528
  • Activity:
    100%
  • Country: pk
  • Posts: 1710
  • Topics: 1010
  • Join Date: Mar 2015
  • ShareSpark Member
Badhaai Ho 2018 Hindi 720p PRE-DVDRip x264 [MW]











General
Format : Matroska
Format version : Version 4 / Version 2
File size : 1.07 GiB
Duration : 1 h 54 min
Overall bit rate : 1 330 kb/s

Video
ID : 1
Format : AVC
Format/Info : Advanced Video Codec
Format profile : [email protected]
Format settings : CABAC / 4 Ref Frames
Format settings, CABAC : Yes
Format settings, RefFrames : 4 frames
Codec ID : V_MPEG4/ISO/AVC
Duration : 1 h 54 min
Bit rate : 1 200 kb/s
Width : 1 280 pixels
Height : 568 pixels
Display aspect ratio : 2.25:1
Frame rate mode : Constant
Frame rate : 29.970 (30000/1001) FPS
Color space : YUV
Chroma subsampling : 4:2:0
Bit depth : 8 bits
Scan type : Progressive
Bits/(Pixel*Frame) : 0.055
Stream size : 986 MiB (90%)
Writing library : x264 core 155 r2901 7d0ff22
Default : Yes
Forced : No

Audio
ID : 2
Format : AAC
Format/Info : Advanced Audio Codec
Format profile : LC
Codec ID : A_AAC-2
Duration : 1 h 54 min
Bit rate : 129 kb/s
Channel(s) : 2 channels
Channel positions : Front: L R
Sampling rate : 48.0 kHz
Frame rate : 46.875 FPS (1024 SPF)
Compression mode : Lossy
Stream size : 106 MiB (10%)
Language : Hindi
Default : Yes
Forced : No






 :ss:












 :download:

























Share this topic on FacebookShare this topic on GoogleShare this topic on MySpaceShare this topic on TwitterShare this topic on Yahoo



Thanks given by:


Tags:
 

Related Topics





Back to top