+ ShareSpark.net »  :::: Bollywood Zone » Indian PC Videos
|- Satyameva Jayate (2018) (MUSIC VIDEO ALBUM) 1080p HDRip x264 DDP 5.1 ESuBS By ~MaLiK ZEE~


Mastercard 10% Off

Satyameva Jayate (2018) (MUSIC VIDEO ALBUM) 1080p HDRip x264 DDP 5.1 ESuBS By ~MaLiK ZEE~

0 Members and 1 Guest are viewing this topic.

October 23, 2018, 03:24:38 AM
Satyameva Jayate (2018) (MUSIC VIDEO ALBUM) 1080p HDRip x264 DDP 5.1 ESuBS By ~MaLiK ZEE~


~♥ BollyWooD MoviE ♥~
(Satyameva Jayate 2018)

Quote

Specs ♪♫
General
Format                      : Matroska
Format version              : Version 4 / Version 2
File size                   : 304 MB
Overall bit rate            : 5 751 kb/s
Encoded date                : UTC 2018-10-20 09:31:15
Writing application         : mkvmerge v25.0.0 ('Prog Noir') 64-bit
Writing library             : libebml v1.3.6 + libmatroska v1.4.9

♪ Video ♪
ID                          : 1
Format                      : AVC
Format/Info                 : Advanced Video Codec
Format profile              : [email protected]
Format settings             : CABAC / 4 Ref Frames
Format settings, CABAC      : Yes
Format settings, ReFrames   : 4 frames
Codec ID                    : V_MPEG4/ISO/AVC
Bit rate                    : 5 109 kb/s
Width                       : 1 920 pixels
Height                      : 816 pixels
Display aspect ratio        : 2.35:1
Frame rate mode             : Constant
Frame rate                  : 24.000 FPS
Color space                 : YUV
Chroma subsampling          : 4:2:0
Bit depth                   : 8 bits
Scan type                   : Progressive
Bits/(Pixel*Frame)          : 0.136
Stream size                 : 93.6 MiB (89%)
Language                    : English
Default                     : Yes
Forced                      : No

♫ Audio ♫
ID                          : 2
Format                      : E-AC-3
Format/Info                 : Enhanced Audio Coding 3
Codec ID                    : A_EAC3
Bit rate mode               : Constant
Bit rate                    : 640 kb/s
Channel(s)                  : 6 channels
Channel positions           : Front: L C R, Side: L R, LFE
Sampling rate               : 48.0 kHz
Frame rate                  : 187.500 FPS (256 SPF)
Compression mode            : Lossy
Delay relative to video     : 27 ms
Stream size                 : 11.7 MiB (11%)
Title                       : By~MaLiK ZEE~
Language                    : Hindi
Service kind                : Complete Main
Default                     : Yes
Forced                      : No


English Subtitles : Yes
Chapters : No

Ripped By ~MaLiK ZEE~

 :ss:
















 :download:

Google Drive

Quote
01-Dilbar [By ~MaLiK ZEE~]

02-Paniyon Sa [By ~MaLiK ZEE~]

03-Tajdar-E-Haram [By ~MaLiK ZEE~]


Next Topic Coming Soon...............


aashiqui 1990 video songs BD50 & Bluray 1080p
Krrish 2006  video songs BD50 & Bluray 1080p
Krrish 3 2013 video songs BD50 & Bluray 1080p
Ek Villain 2014 video songs BD50 & Bluray 1080p
jab tak hai jaan 2012 video songs BD50 & Bluray 1080p
R... Rajkumar 2013 video songs BD50 & Bluray 1080p
Race 2 2013 video songs BD50 & Bluray 1080p
No Entry 2005 video songs BD50 & Bluray 1080p
Ghajini 2008 video songs BD50 & Bluray 1080p
rockstar 2011 video songs BD50 & Bluray 1080p
Bareilly Ki Barfi 2017 video songs BD50 & Bluray 1080p
Dabangg 2010 video songs BD50 & Bluray 1080p








Share this topic on FacebookShare this topic on GoogleShare this topic on MySpaceShare this topic on TwitterShare this topic on Yahoo

« Last Edit: October 23, 2018, 05:11:03 AM by 【M】【A】【L】【I】【K】 【Z】【E】【E】 »


Thanks given by:


October 23, 2018, 02:23:32 PM
Reply #1
  • Semi Newbie
  • **
  • Thank You: 0
  • Reputation: 0
  • Activity:
    3.2%
  • Country: ae
  • Posts: 25
  • Topics: 0
  • Join Date: Jun 2018
  • ShareSpark Member

October 23, 2018, 03:09:48 PM
Reply #2
  • Newbie
  • **
  • Thank You: 0
  • Reputation: 0
  • Activity:
    0.2%
  • Posts: 3
  • Topics: 0
  • Join Date: Jul 2013
  • ShareSpark Member
please post sanju songs 5.1 highest quality possible and thank you for this  :10on10:

October 23, 2018, 04:43:23 PM
Reply #3
  • Semi Newbie
  • **
  • Thank You: 0
  • Reputation: 0
  • Activity:
    5%
  • Posts: 29
  • Topics: 0
  • Join Date: Mar 2013
  • ShareSpark Member
I was not able to login for few days due to connection problem.
Thanks for Your Great Effort Bro.
Looking forward for
AASHIQUE 1990 BD50 Songs (I qued BD50 now skipping it)
I would like to get.
1-Dhoom 1
2-Ghulam 1998
3-Lamhay 1991
4-DWDLJG 1995
5-No Entry 2005 (Which is coming)
6-Asoka
7-Raid 2018 (1 or 2 song)
8-Besharam

Please Upload above as u find source & some spare time as well.

Tags:
 

Related Topics





Back to top