+ ShareSpark.net »  :::: Bollywood Zone » Indian PC Videos
|- Ghajini (2008) (MUSIC VIDEO ALBUM) 1080p Blu-ray x264 DTS-HDMA 5.1 ESuBS By ~MaLiK ZEE~


Mastercard 10% Off

Ghajini (2008) (MUSIC VIDEO ALBUM) 1080p Blu-ray x264 DTS-HDMA 5.1 ESuBS By ~MaLiK ZEE~

0 Members and 1 Guest are viewing this topic.

October 27, 2018, 04:53:32 AM
Ghajini (2008) (MUSIC VIDEO ALBUM) 1080p Blu-ray x264 DTS-HDMA 5.1 ESuBS By ~MaLiK ZEE~


~♥ BollyWooD MoviE ♥~
(Ghajini 2008)

Quote

Specs ♪♫
General
Format                      : Matroska
Format version              : Version 4 / Version 2
File size                   : 2.34 GB
Encoded date                : UTC 2018-10-22 06:24:49
Writing application         : mkvmerge v25.0.0 ('Prog Noir') 64-bit
Writing library             : libebml v1.3.6 + libmatroska v1.4.9

♪ Video ♪
Video
ID                          : 1
Format                      : AVC
Format/Info                 : Advanced Video Codec
Format profile              : [email protected]
Format settings             : CABAC / 5 Ref Frames
Format settings, CABAC      : Yes
Format settings, ReFrames   : 5 frames
Codec ID                    : V_MPEG4/ISO/AVC
Bit rate                    : 11.5 Mb/s
Width                       : 1 920 pixels
Height                      : 816 pixels
Display aspect ratio        : 2.35:1
Frame rate mode             : Constant
Frame rate                  : 23.976 (23976/1000) FPS
Color space                 : YUV
Chroma subsampling          : 4:2:0
Bit depth                   : 8 bits
Scan type                   : Progressive
Bits/(Pixel*Frame)          : 0.305
Stream size                 : 244 MiB (77%)
Language                    : English
Default                     : Yes
Forced                      : No
Color range                 : Limited
Color primaries             : BT.709
Transfer characteristics    : BT.709
Matrix coefficients         : BT.709

♫ Audio ♫

Audio #1
ID                          : 2
Format                      : DTS
Format/Info                 : Digital Theater Systems
Format profile              : MA / Core
Codec ID                    : A_DTS
Bit rate mode               : Variable / Constant
Bit rate                    : 3 002 kb/s / 1 509 kb/s
Channel(s)                  : 6 channels
Channel positions           : Front: L C R, Side: L R, LFE
Sampling rate               : 48.0 kHz
Frame rate                  : 93.750 FPS (512 SPF)
Bit depth                   : 16 bits
Compression mode            : Lossless / Lossy
Delay relative to video     : 4 ms
Stream size                 : 63.9 MiB (20%)
Title                       : By ~MaLiK ZEE~ 1
Language                    : Hindi
Default                     : Yes
Forced                      : No

Audio #2
ID                          : 3
Format                      : AC-3
Format/Info                 : Audio Coding 3
Codec ID                    : A_AC3
Bit rate mode               : Constant
Bit rate                    : 448 kb/s
Channel(s)                  : 6 channels
Channel positions           : Front: L C R, Side: L R, LFE
Sampling rate               : 48.0 kHz
Frame rate                  : 31.250 FPS (1536 SPF)
Bit depth                   : 16 bits
Compression mode            : Lossy
Delay relative to video     : 4 ms
Stream size                 : 9.54 MiB (3%)
Title                       : By ~MaLiK ZEE~ 2
Language                    : Hindi
Service kind                : Complete Main
Default                     : No
Forced                      : No

♫ Subtitles  ♫

Text #1
ID                          : 4
Format                      : PGS
Muxing mode                 : zlib
Codec ID                    : S_HDMV/PGS
Codec ID/Info               : Picture based subtitle format used on BDs/HD-DVDs
Bit rate                    : 32.2 kb/s
Count of elements           : 30
Stream size                 : 345 KiB (0%)
Title                       : By ~MaLiK ZEE~
Language                    : English
Default                     : Yes
Forced                      : Yes

Text #2
ID                          : 5
Format                      : PGS
Muxing mode                 : zlib
Codec ID                    : S_HDMV/PGS
Codec ID/Info               : Picture based subtitle format used on BDs/HD-DVDs
Bit rate                    : 17.6 kb/s
Count of elements           : 30
Stream size                 : 189 KiB (0%)
Title                       : By ~MaLiK ZEE~
Language                    : Arabic
Default                     : No
Forced                      : No

Text #3
ID                          : 6
Format                      : PGS
Muxing mode                 : zlib
Codec ID                    : S_HDMV/PGS
Codec ID/Info               : Picture based subtitle format used on BDs/HD-DVDs
Bit rate                    : 33.2 kb/s
Count of elements           : 30
Stream size                 : 355 KiB (0%)
Title                       : By ~MaLiK ZEE~
Language                    : Dutch
Default                     : No
Forced                      : No

Text #4
ID                          : 7
Format                      : PGS
Muxing mode                 : zlib
Codec ID                    : S_HDMV/PGS
Codec ID/Info               : Picture based subtitle format used on BDs/HD-DVDs
Bit rate                    : 34.5 kb/s
Count of elements           : 31
Stream size                 : 369 KiB (0%)
Title                       : By ~MaLiK ZEE~
Language                    : French
Default                     : No
Forced                      : No

Text #5
ID                          : 8
Format                      : PGS
Muxing mode                 : zlib
Codec ID                    : S_HDMV/PGS
Codec ID/Info               : Picture based subtitle format used on BDs/HD-DVDs
Bit rate                    : 32.0 kb/s
Count of elements           : 30
Stream size                 : 342 KiB (0%)
Title                       : By ~MaLiK ZEE~
Language                    : Portuguese
Default                     : No
Forced                      : No

Text #6
ID                          : 9
Format                      : PGS
Muxing mode                 : zlib
Codec ID                    : S_HDMV/PGS
Codec ID/Info               : Picture based subtitle format used on BDs/HD-DVDs
Bit rate                    : 42.6 kb/s
Count of elements           : 30
Stream size                 : 456 KiB (0%)
Title                       : By ~MaLiK ZEE~
Language                    : Spanish
Default                     : No
Forced                      : No

Text #7
ID                          : 10
Format                      : PGS
Muxing mode                 : zlib
Codec ID                    : S_HDMV/PGS
Codec ID/Info               : Picture based subtitle format used on BDs/HD-DVDs
Bit rate                    : 37.6 kb/s
Count of elements           : 48
Stream size                 : 402 KiB (0%)
Title                       : By ~MaLiK ZEE~
Language                    : Chinese
Default                     : No
Forced                      : No

Text #8
ID                          : 11
Format                      : PGS
Muxing mode                 : zlib
Codec ID                    : S_HDMV/PGS
Codec ID/Info               : Picture based subtitle format used on BDs/HD-DVDs
Bit rate                    : 69.8 kb/s
Count of elements           : 48
Stream size                 : 745 KiB (0%)
Title                       : By ~MaLiK ZEE~
Language                    : Chinese
Default                     : No
Forced                      : No
Ripped By ~MaLiK ZEE~

 :ss:

























 :download:

Google Drive

Quote
01-Aye Bachchu [By ~MaLiK ZEE~]

02-Behka [By ~MaLiK ZEE~]

03-Latoo [By ~MaLiK ZEE~]

04-Guzarish [By ~MaLiK ZEE~]

05-Kaise Mujhe [By ~MaLiK ZEE~]

06-Kaise Mujhe End Roll [By ~MaLiK ZEE~]





Share this topic on FacebookShare this topic on GoogleShare this topic on MySpaceShare this topic on TwitterShare this topic on Yahoo



Thanks given by:


Tags:
 

Related Topics





Back to top