+ ShareSpark.net »  :::: Bollywood Zone » Indian PC Videos
|- ASOKA (2001) (MUSIC VIDEO ALBUM) 1080p Blu-ray x264 TrueHD 5.1 ESuBS By ~MaLiK ZEE~


10% SBI and 10% Discount

ASOKA (2001) (MUSIC VIDEO ALBUM) 1080p Blu-ray x264 TrueHD 5.1 ESuBS By ~MaLiK ZEE~

0 Members and 1 Guest are viewing this topic.

October 30, 2018, 04:47:15 AM
ASOKA (2001) (MUSIC VIDEO ALBUM) 1080p Blu-ray x264 TrueHD 5.1 ESuBS By ~MaLiK ZEE~


~♥ BollyWooD MoviE ♥~
(ASOKA 2001)

Quote

Specs ♪♫
General
Format                      : Matroska
Format version              : Version 4 / Version 2
File size                   : 1.90 GB
Overall bit rate mode       : Variable
Overall bit rate            : 13.2 Mb/s
Encoded date                : UTC 2018-10-27 13:43:26
Writing application         : mkvmerge v25.0.0 ('Prog Noir') 64-bit
Writing library             : libebml v1.3.6 + libmatroska v1.4.9

♪ Video ♪
ID                          : 1
Format                      : AVC
Format/Info                 : Advanced Video Codec
Format profile              : [email protected]
Format settings             : CABAC / 5 Ref Frames
Format settings, CABAC      : Yes
Format settings, ReFrames   : 5 frames
Codec ID                    : V_MPEG4/ISO/AVC
Bit rate                    : 7 207 kb/s
Width                       : 1 920 pixels
Height                      : 818 pixels
Display aspect ratio        : 2.35:1
Frame rate mode             : Constant
Frame rate                  : 24.000 FPS
Color space                 : YUV
Chroma subsampling          : 4:2:0
Bit depth                   : 8 bits
Scan type                   : Progressive
Bits/(Pixel*Frame)          : 0.191
Stream size                 : 192 MiB (55%)
Default                     : Yes
Forced                      : No
Color range                 : Limited
Color primaries             : BT.709
Transfer characteristics    : BT.709
Matrix coefficients         : BT.709

♫ Audio ♫

Audio #1
ID                          : 2
Format                      : TrueHD
Codec ID                    : A_TRUEHD
Bit rate mode               : Variable
Bit rate                    : 5 281 kb/s
Maximum bit rate            : 6 654 kb/s
Channel(s)                  : 6 channels
Channel positions           : Front: L C R, Side: L R, LFE
Sampling rate               : 96.0 kHz
Frame rate                  : 2 400.000 FPS (40 SPF)
Compression mode            : Lossless
Delay relative to video     : -36 ms
Stream size                 : 141 MiB (40%)
Title                       : TrueHD 5.1.......By ~MaLiK ZEE~
Language                    : Hindi
Default                     : Yes
Forced                      : No

Audio #2
ID                          : 3
Format                      : AC-3
Format/Info                 : Audio Coding 3
Codec ID                    : A_AC3
Bit rate mode               : Constant
Bit rate                    : 640 kb/s
Channel(s)                  : 6 channels
Channel positions           : Front: L C R, Side: L R, LFE
Sampling rate               : 48.0 kHz
Frame rate                  : 31.250 FPS (1536 SPF)
Bit depth                   : 16 bits
Compression mode            : Lossy
Delay relative to video     : -37 ms
Stream size                 : 17.0 MiB (5%)
Title                       : AC-3.......By ~MaLiK ZEE~
Language                    : Hindi
Service kind                : Complete Main
Default                     : No
Forced                      : No

English Subtitles : Yes
Chapters : No

 :ss:




























 :download:

Google Drive

Quote
01-San Sanana [By ~MaLiK ZEE~]

02-Aa Tayar Hoja [By ~MaLiK ZEE~]

03-O Re Kanchi [By ~MaLiK ZEE~]

04-Roshni Se [By ~MaLiK ZEE~]

05-Raat Ka Nasha [By ~MaLiK ZEE~]

06-San Sanana End Roll [By ~MaLiK ZEE~]





Share this topic on FacebookShare this topic on GoogleShare this topic on MySpaceShare this topic on TwitterShare this topic on Yahoo



Thanks given by:


October 30, 2018, 06:32:59 AM
Reply #1
  • Team SSX
  • Legend Member
  • ***
  • Thank You: 3835
  • Reputation: 935
  • Activity:
    100%
  • Country: np
  • Posts: 2059
  • Topics: 1206
  • Join Date: Jul 2016
  • Love Forever !!
« Last Edit: October 30, 2018, 06:35:44 AM by Special26 »

October 30, 2018, 08:04:32 AM
Reply #2
  • Elite Forces
  • ****
  • Thank You: 240
  • Reputation: 102
  • Activity:
    9%
  • Country: sa
  • Posts: 1165
  • Topics: 126
  • Join Date: Jan 2017
  • ShareSpark Member

Tags:
 

Related Topics





Back to top