+ ShareSpark.net »  :::: Bollywood Zone » Indian PC Videos
|- Aashiqui (1990) (MUSIC VIDEO ALBUM) 1080p Blu-ray x264 DTS-HDMA 5.1 ESuBS By ~MaLiK ZEE~


Redmi 6A

Aashiqui (1990) (MUSIC VIDEO ALBUM) 1080p Blu-ray x264 DTS-HDMA 5.1 ESuBS By ~MaLiK ZEE~

0 Members and 1 Guest are viewing this topic.

November 01, 2018, 09:09:07 AM
Aashiqui (1990) (MUSIC VIDEO ALBUM) 1080p Blu-ray x264 DTS-HDMA 5.1 ESuBS By ~MaLiK ZEE~


~♥ BollyWooD MoviE ♥~
(Aashiqui 1990)

Quote

Specs ♪♫
General
Format                      : Matroska
Format version              : Version 4 / Version 2
File size                   : 3.20 GB
Overall bit rate            : 7 477 kb/s
Encoded date                : UTC 2018-10-31 00:00:02
Writing application         : mkvmerge v25.0.0 ('Prog Noir') 64-bit
Writing library             : libebml v1.3.6 + libmatroska v1.4.9

♪ Video ♪
ID                          : 1
Format                      : AVC
Format/Info                 : Advanced Video Codec
Format profile              : [email protected]
Format settings             : CABAC / 5 Ref Frames
Format settings, CABAC      : Yes
Format settings, ReFrames   : 5 frames
Codec ID                    : V_MPEG4/ISO/AVC
Bit rate                    : 5 290 kb/s
Width                       : 1 920 pixels
Height                      : 818 pixels
Display aspect ratio        : 2.35:1
Frame rate mode             : Constant
Frame rate                  : 24.000 FPS
Color space                 : YUV
Chroma subsampling          : 4:2:0
Bit depth                   : 8 bits
Scan type                   : Progressive
Bits/(Pixel*Frame)          : 0.140
Stream size                 : 221 MiB (71%)
Default                     : Yes
Forced                      : No
Color range                 : Limited
Color primaries             : BT.709
Transfer characteristics    : BT.709
Matrix coefficients         : BT.709

♫ Audio ♫

Audio #1
ID                          : 2
Format                      : PCM
Format settings             : Little / Signed
Codec ID                    : A_PCM/INT/LIT
Bit rate mode               : Constant
Bit rate                    : 1 536 kb/s
Channel(s)                  : 2 channels
Sampling rate               : 48.0 kHz
Frame rate                  : 200.000 FPS (240 SPF)
Bit depth                   : 16 bits
Delay relative to video     : -2 ms
Stream size                 : 64.2 MiB (21%)
Title                       : PCM..........By~MaLiK ZEE~ 1
Language                    : Hindi
Default                     : Yes
Forced                      : No

Audio #2
ID                          : 3
Format                      : AC-3
Format/Info                 : Audio Coding 3
Codec ID                    : A_AC3
Bit rate mode               : Constant
Bit rate                    : 640 kb/s
Channel(s)                  : 6 channels
Channel positions           : Front: L C R, Side: L R, LFE
Sampling rate               : 48.0 kHz
Frame rate                  : 31.250 FPS (1536 SPF)
Bit depth                   : 16 bits
Compression mode            : Lossy
Delay relative to video     : 14 ms
Stream size                 : 26.7 MiB (9%)
Title                       : AC-3..........By~MaLiK ZEE~ 2
Language                    : Hindi
Service kind                : Complete Main
Default                     : No
Forced                      : No

♫ Subtitles ♫
Text
ID                          : 4
Format                      : PGS
Muxing mode                 : zlib
Codec ID                    : S_HDMV/PGS
Codec ID/Info               : Picture based subtitle format used on BDs/HD-DVDs
Bit rate                    : 21.0 kb/s
Count of elements           : 86
Stream size                 : 745 KiB (0%)
Title                       : By~MaLiK ZEE~
Language                    : English
Default                     : Yes
Forced                      : No


Ripped By ~MaLiK ZEE~

 :ss:













































 :download:

Google Drive

Quote
01-Saanson Ki Zaroorat 1 [By ~MaLiK ZEE~]

02-Dheere Dheere Se [By ~MaLiK ZEE~]

03-Tu Meri Zindagi Hai [By ~MaLiK ZEE~]

04-Mein Duniya Bhuladunga [By ~MaLiK ZEE~]

05-Jaane Jiger Jaaneman 1 [By ~MaLiK ZEE~]

06-Jaane Jiger Jaaneman 2 [By ~MaLiK ZEE~]

07-Nazar Ke Saamne [By ~MaLiK ZEE~]

08-Mera Dil [By ~MaLiK ZEE~]

09-Ab Tere Bin Jee Lenge Hum [By ~MaLiK ZEE~]

10-Saanson Ki Zaroorat 2 [By ~MaLiK ZEE~]

11-Saanson Ki Zaroorat End Roll





Share this topic on FacebookShare this topic on GoogleShare this topic on MySpaceShare this topic on TwitterShare this topic on Yahoo



Thanks given by:


November 01, 2018, 09:28:12 AM
Reply #1
  • Semi Newbie
  • **
  • Thank You: 1
  • Reputation: 0
  • Activity:
    4.4%
  • Country: in
  • Posts: 30
  • Topics: 1
  • Join Date: Sep 2015
  • ShareSpark Member

November 01, 2018, 10:06:41 AM
Reply #2
  • Team SSX
  • Legend Member
  • ***
  • Thank You: 3835
  • Reputation: 935
  • Activity:
    100%
  • Country: np
  • Posts: 2059
  • Topics: 1206
  • Join Date: Jul 2016
  • Love Forever !!

November 01, 2018, 10:10:03 AM
Reply #3
  • Begginer
  • **
  • Thank You: 0
  • Reputation: 0
  • Activity:
    16.6%
  • Country: pk
  • Posts: 71
  • Topics: 0
  • Join Date: Feb 2017
  • ShareSpark Member

November 01, 2018, 10:31:29 AM
Reply #4

November 01, 2018, 11:20:41 AM
Reply #5
  • Elite Forces
  • ****
  • Thank You: 240
  • Reputation: 102
  • Activity:
    9%
  • Country: sa
  • Posts: 1165
  • Topics: 126
  • Join Date: Jan 2017
  • ShareSpark Member

November 01, 2018, 04:09:07 PM
Reply #6
  • Semi Newbie
  • **
  • Thank You: 0
  • Reputation: 0
  • Activity:
    1.4%
  • Country: pk
  • Posts: 7
  • Topics: 0
  • Join Date: Dec 2016
  • ShareSpark Member

November 01, 2018, 06:23:45 PM
Reply #7
  • Semi Newbie
  • **
  • Thank You: 0
  • Reputation: 0
  • Activity:
    3.2%
  • Country: ae
  • Posts: 25
  • Topics: 0
  • Join Date: Jun 2018
  • ShareSpark Member

November 02, 2018, 11:25:44 PM
Reply #8
  • Semi Newbie
  • **
  • Thank You: 0
  • Reputation: 0
  • Activity:
    0.6%
  • Country: pk
  • Posts: 5
  • Topics: 0
  • Join Date: Jun 2017
  • ShareSpark Member

November 03, 2018, 01:50:48 PM
Reply #9
  • Begginer
  • **
  • Thank You: 0
  • Reputation: 0
  • Activity:
    16.6%
  • Country: pk
  • Posts: 71
  • Topics: 0
  • Join Date: Feb 2017
  • ShareSpark Member

Tags:
 

Related Topics





Back to top