+ ShareSpark.net »  :::: Dubbed Zone (Dubbed English in Hindi) » TV Shows (Dubbed in Hindi)
|- The Protector S02 Complete 720p WEB-Rip [Hindi - English] DD5.1 - ESUB ~ Ranvijay [Team SSX]


  • The Protector S02 Complete 720p WEB-Rip [Hindi - English] DD5.1 - ESUB ~ Ranvijay [Team SSX] 1 1
Currently:  

The Protector S02 Complete 720p WEB-Rip [Hindi - English] DD5.1 - ESUB ~ Ranvijay [Team SSX]

0 Members and 1 Guest are viewing this topic.

April 28, 2019, 08:58:01 AM
  • Legend
  • Legend Member
  • ***
  • Topic Author
  • Thank You: 14053
  • Reputation: 2866
  • Activity:
    59%
  • Country: in
  • Posts: 6145
  • Topics: 5030
  • Join Date: Jan 2014
  • ıllıllı ѕмoĸιng ιѕ good ғor нealтн ıllıllı :)






The Protector S02 Complete 720p WEB-Rip [Hindi - English] DD5.1 - ESUB ~ Ranvijay [Team SSX]

Thanks To The Punisher For Hindi Audio

Click Below Link To join Us On Telegram



Buy RDP Online




Quote

Format                                   : Matroska
Format version                           : Version 4 / Version 2
File size                                : 478 MiB
Duration                                 : 47 min 8 s
Overall bit rate                         : 1 418 kb/s
Movie name                               : The Protector S02E08 720p WEB-Rip x264 [Hindi - English] DD5.1 - ESUB ~ Ranvijay

Video
ID                                       : 1
Format                                   : AVC
Format/Info                              : Advanced Video Codec
Duration                                 : 47 min 8 s
Bit rate                                 : 1 000 kb/s
Width                                    : 1 280 pixels
Height                                   : 640 pixels
Display aspect ratio                     : 2.000
Frame rate mode                          : Constant
Frame rate                               : 24.000 FPS
Color space                              : YUV
Chroma subsampling                       : 4:2:0
Bit depth                                : 8 bits
Scan type                                : Progressive
Bits/(Pixel*Frame)                       : 0.051
Stream size                              : 328 MiB (69%)
Title                                    : ~Ranvijay~
Default                                  : Yes
Forced                                   : No

Audio #1
ID                                       : 2
Format                                   : AC-3
Format/Info                              : Audio Coding 3
Codec ID                                 : A_AC3
Duration                                 : 47 min 8 s
Bit rate mode                            : Constant
Bit rate                                 : 224 kb/s
Channel(s)                               : 6 channels
Channel positions                        : Front: L C R, Side: L R, LFE
Sampling rate                            : 48.0 kHz
Frame rate                               : 31.250 FPS (1536 SPF)
Bit depth                                : 16 bits
Compression mode                         : Lossy
Stream size                              : 75.5 MiB (16%)
Title                                    : ~Ranvijay~
Language                                 : Hindi
Service kind                             : Complete Main
Default                                  : Yes
Forced                                   : Yes

Audio #2
ID                                       : 3
Format                                   : AC-3
Format/Info                              : Audio Coding 3
Codec ID                                 : A_AC3
Duration                                 : 47 min 8 s
Bit rate mode                            : Constant
Bit rate                                 : 192 kb/s
Channel(s)                               : 6 channels
Channel positions                        : Front: L C R, Side: L R, LFE
Sampling rate                            : 48.0 kHz
Frame rate                               : 31.250 FPS (1536 SPF)
Bit depth                                : 16 bits
Compression mode                         : Lossy
Stream size                              : 64.7 MiB (14%)
Title                                    : ~Ranvijay~
Language                                 : English
Service kind                             : Complete Main
Default                                  : No
Forced                                   : No

Text #1
ID                                       : 4
Format                                   : UTF-8
Codec ID                                 : S_TEXT/UTF8
Codec ID/Info                            : UTF-8 Plain Text
Title                                    : ~Ranvijay~
Language                                 : English
Default                                  : Yes
Forced                                   : Yes

Text #2
ID                                       : 5
Format                                   : UTF-8
Codec ID                                 : S_TEXT/UTF8
Codec ID/Info                            : UTF-8 Plain Text
Title                                    : ~Ranvijay~
Language                                 : English
Default                                  : No
Forced                                   : No


















:download:

Quote











Rar Link



File Leeched & Uploaded From




Don't walk as you are king, walk as you don't care who the king is....!!
Never argue with an idiot. They drag you down to their level and then beat you with experience?

Share this topic on FacebookShare this topic on GoogleShare this topic on MySpaceShare this topic on TwitterShare this topic on Yahoo

« Last Edit: April 28, 2019, 09:22:12 AM by Rάήνίјάч1234 »



Don't walk as you are king, walk as you don't care who the king is....!!

Thanks given by:


May 16, 2019, 09:15:51 PM
Reply #1
  • Hero Member
  • ***
  • Thank You: 4
  • Reputation: -5
  • Activity:
    14.6%
  • Country: pk
  • Posts: 387
  • Topics: 8
  • Join Date: Mar 2013
  • ShareSpark Member

Tags:
 

Related Topics





Back to top