+ ShareSpark.net »  :::: Bollywood Zone » Indian TV Shows
|- Mirzapur S01 Complete 1080p WEB-Rip x264 Hindi AC3 DD5.1 - MSUBS ~ Ranvijay - 10GB


Amazon Pantry Offer

Mirzapur S01 Complete 1080p WEB-Rip x264 Hindi AC3 DD5.1 - MSUBS ~ Ranvijay - 10GB

0 Members and 1 Guest are viewing this topic.

November 19, 2018, 02:06:13 PM
  • Global Moderator
  • Legend Member
  • *****
  • Topic Author
  • Thank You: 11916
  • Reputation: 2421
  • Activity:
    100%
  • Country: in
  • Posts: 5645
  • Topics: 4627
  • Join Date: Jan 2014
  • ıllıllı ѕмoĸιng ιѕ good ғor нealтн ıllıllı :)




Mirzapur S01 Complete 1080p WEB-Rip x264 Hindi AC3 DD5.1 - MSUBS ~ Ranvijay

Buy RDP Online




Quote

Source                                   : NbT
Format                                   : Matroska
Format version                           : Version 4 / Version 2
File size                                : 1.26 GiB
Duration                                 : 53 min 16 s
Overall bit rate                         : 3 386 kb/s
Movie name                               : Mirzapur S01E01 Jhandu 1080p WEB-Rip x264 Hindi AC3 DD5.1 - MSUBS ~ Ranvijay

Video
ID                                       : 1
Format                                   : AVC
Format/Info                              : Advanced Video Codec
Duration                                 : 53 min 16 s
Bit rate                                 : 3 000 kb/s
Width                                    : 1 920 pixels
Height                                   : 1 080 pixels
Display aspect ratio                     : 16:9
Frame rate mode                          : Constant
Frame rate                               : 25.000 FPS
Color space                              : YUV
Chroma subsampling                       : 4:2:0
Bit depth                                : 8 bits
Scan type                                : Progressive
Bits/(Pixel*Frame)                       : 0.058
Stream size                              : 1.12 GiB (89%)
Title                                    : ~Ranvijay~

Audio
ID                                       : 2
Format                                   : AC-3
Format/Info                              : Audio Coding 3
Codec ID                                 : A_AC3
Duration                                 : 53 min 16 s
Bit rate mode                            : Constant
Bit rate                                 : 384 kb/s
Channel(s)                               : 6 channels
Channel positions                        : Front: L C R, Side: L R, LFE
Sampling rate                            : 48.0 kHz
Frame rate                               : 31.250 FPS (1536 SPF)
Bit depth                                : 16 bits
Compression mode                         : Lossy
Stream size                              : 146 MiB (11%)
Title                                    : ~Ranvijay~
Language                                 : Hindi
Service kind                             : Complete Main
Default                                  : Yes
Forced                                   : Yes

Text #1
ID                                       : 3
Format                                   : UTF-8
Codec ID                                 : S_TEXT/UTF8
Codec ID/Info                            : UTF-8 Plain Text
Duration                                 : 49 min 48 s
Bit rate                                 : 50 b/s
Count of elements                        : 593
Stream size                              : 18.5 KiB (0%)
Title                                    : English [Full]
Language                                 : English
Default                                  : No
Forced                                   : No

Text #2
ID                                       : 4
Format                                   : UTF-8
Codec ID                                 : S_TEXT/UTF8
Codec ID/Info                            : UTF-8 Plain Text
Duration                                 : 51 min 47 s
Bit rate                                 : 147 b/s
Count of elements                        : 763
Stream size                              : 56.0 KiB (0%)
Title                                    : Hindi [SDH]
Language                                 : Hindi
Default                                  : No
Forced                                   : No

Chapter                             : Yes

















:download:

Quote










SAMPLE

SS

File Leeched & Uploaded From




Don't walk as you are king, walk as you don't care who the king is....!!
Never argue with an idiot. They drag you down to their level and then beat you with experience?

Share this topic on FacebookShare this topic on GoogleShare this topic on MySpaceShare this topic on TwitterShare this topic on Yahoo

« Last Edit: December 30, 2018, 09:40:39 PM by Rάήνίјάч1234 »



Don't walk as you are king, walk as you don't care who the king is....!!

Thanks given by:


November 22, 2018, 12:43:50 PM
Reply #1
  • Semi Newbie
  • **
  • Thank You: 0
  • Reputation: 0
  • Activity:
    0.8%
  • Country: in
  • Posts: 11
  • Topics: 0
  • Join Date: Aug 2014
  • ShareSpark Member

December 28, 2018, 07:28:36 PM
Reply #2
  • Senior Member
  • ***
  • Thank You: 4
  • Reputation: 1
  • Activity:
    27%
  • Country: pk
  • Posts: 290
  • Topics: 7
  • Join Date: Mar 2013
  • ShareSpark Member
@Rάήνίјάч1234
bro can we have single gdrive folder link??
it would be gr8..
plz fix the links

December 30, 2018, 09:41:08 PM
Reply #3
  • Global Moderator
  • Legend Member
  • *****
  • Topic Author
  • Thank You: 11916
  • Reputation: 2421
  • Activity:
    100%
  • Country: in
  • Posts: 5645
  • Topics: 4627
  • Join Date: Jan 2014
  • ıllıllı ѕмoĸιng ιѕ good ғor нealтн ıllıllı :)

Don't walk as you are king, walk as you don't care who the king is....!!

December 31, 2018, 12:41:54 PM
Reply #4
  • Elite Member
  • ***
  • Thank You: 0
  • Reputation: 7
  • Activity:
    8.2%
  • Country: au
  • Posts: 410
  • Topics: 0
  • Join Date: Oct 2017
  • ShareSpark Member

Tags:
 

Related Topics





Back to top