+ ShareSpark.net »  :::: Bollywood Zone » Bollywood Movies (Original Rips) » HEVC / H.265 Releases
|- Force (2012) Full Movie 720p DVD Rip Dollby Audio 5.1~~ENCODED BY SATURNWEB


Force (2012) Full Movie 720p DVD Rip Dollby Audio 5.1~~ENCODED BY SATURNWEB

0 Members and 1 Guest are viewing this topic.

October 24, 2018, 10:08:21 AM
  • Newbie
  • **
  • Topic Author
  • Thank You: 1
  • Reputation: -1
  • Activity:
    0%
  • Country: in
  • Posts: 3
  • Topics: 2
  • Join Date: Oct 2018
  • ShareSpark Member
General

Format                           : MPEG-4
Format profile                   : Base Media / Version 2
Codec ID                         : mp42
File size                        : 992 MiB
Duration                         : 1h 58mn
Overall bit rate                 : 1 173 Kbps
Encoded date                     : UTC 2018-10-22 10:20:57
Tagged date                      : UTC 2018-10-22 10:20:57
Writing application              : HandBrake 1.0.7 2017040900

Video
ID                               : 1
Format                           : AVC
Format/Info                      : Advanced Video Codec
Format profile                   : [email protected]
Format settings, CABAC           : Yes
Format settings, ReFrames        : 4 frames
Codec ID                         : avc1
Codec ID/Info                    : Advanced Video Coding
Duration                         : 1h 58mn
Bit rate mode                    : Variable
Bit rate                         : 1 007 Kbps
Width                            : 720 pixels
Height                           : 368 pixels
Display aspect ratio             : 2.35:1
Original display aspect ratio    : 2.35:1
Frame rate mode                  : Variable
Frame rate                       : 29.970 fps
Minimum frame rate               : 1.217 fps
Maximum frame rate               : 142.857 fps
Color space                      : YUV
Chroma subsampling               : 4:2:0
Bit depth                        : 8 bits
Scan type                        : Progressive
Bits/(Pixel*Frame)               : 0.127
Stream size                      : 851 MiB (86%)
Writing library                  : x264 core 148 r2708 86b7198
Encoding settings                : cabac=1 / ref=2 / deblock=1:0:0 / analyse=0x1:0x111 / me=hex / subme=6 / psy=1 / psy_rd=1.00:0.00 / mixed_ref=1 / me_range=16 / chroma_me=1 / trellis=1 / 8x8dct=0 / cqm=0 / deadzone=21,11 / fast_pskip=1 / chroma_qp_offset=-2 / threads=6 / lookahead_threads=1 / sliced_threads=0 / nr=0 / decimate=1 / interlaced=0 / bluray_compat=0 / constrained_intra=0 / bframes=3 / b_pyramid=2 / b_adapt=1 / b_bias=0 / direct=1 / weightb=1 / open_gop=0 / weightp=1 / keyint=300 / keyint_min=30 / scenecut=40 / intra_refresh=0 / rc_lookahead=30 / rc=crf / mbtree=1 / crf=20.0 / qcomp=0.60 / qpmin=0 / qpmax=69 / qpstep=4 / vbv_maxrate=20000 / vbv_bufsize=25000 / crf_max=0.0 / nal_hrd=none / filler=0 / ip_ratio=1.40 / aq=1:1.00
Encoded date                     : UTC 2018-10-22 10:20:57
Tagged date                      : UTC 2018-10-22 10:20:57
Color primaries                  : BT.601-6 525, BT.1358 525, BT.1700 NTSC, SMPTE 170M
Transfer characteristics         : BT.709-5, BT.1361
Matrix coefficients              : BT.601-6 525, BT.1358 525, BT.1700 NTSC, SMPTE 170M

Audio
ID                               : 2
Format                           : AAC
Format/Info                      : Advanced Audio Codec
Format profile                   : LC
Codec ID                         : 40
Duration                         : 1h 58mn
Bit rate mode                    : Variable
Bit rate                         : 159 Kbps
Channel(s)                       : 2 channels
Channel positions                : Front: L R
Sampling rate                    : 48.0 KHz
Compression mode                 : Lossy
Stream size                      : 135 MiB (14%)
Title                            : Stereo
Language                         : Hindi
Encoded date                     : UTC 2018-10-22 10:20:57
Tagged date                      : UTC 2018-10-22 10:20:57

Text
ID                               : 3
Format                           : Apple text
Codec ID                         : text
Duration                         : 1h 58mn
Bit rate mode                    : Variable
Bit rate                         : 1 bps
Stream size                      : 519 Bytes (0%)
Language                         : English
Encoded date                     : UTC 2018-10-22 10:20:57
Tagged date                      : UTC 2018-10-22 10:20:57

[/url]
[/img]
:download:
Download LInks










Download with high speed Links Media fire
   (media fire)

Share this topic on FacebookShare this topic on GoogleShare this topic on MySpaceShare this topic on TwitterShare this topic on Yahoo



Thanks given by:


October 30, 2018, 08:56:46 AM
Reply #1
  • Begginer
  • **
  • Thank You: 28
  • Reputation: 6
  • Activity:
    2.4%
  • Country: in
  • Posts: 93
  • Topics: 68
  • Join Date: Sep 2017
  • ShareSpark Member

November 15, 2018, 12:44:29 PM
Reply #2
  • Hero Member
  • ***
  • Thank You: 0
  • Reputation: 3
  • Activity:
    0%
  • Posts: 375
  • Topics: 1
  • Join Date: Jul 2012
  • ShareSpark Member
20 minutes of movie is missing because runtime of FORCE is 138 minutes, whereas this print is only of 118 minutes.
I wasted my data by downloading this print

Tags:
 

Related Topics





Back to top