+ ShareSpark.net »  :::: Bollywood Zone » Indian PC Videos
|- Kalyug (2005) Hindi 1080p Untouched Webhd AVC {Music Video} ~ Special26


Mastercard 10% Off

Kalyug (2005) Hindi 1080p Untouched Webhd AVC {Music Video} ~ Special26

0 Members and 1 Guest are viewing this topic.

December 12, 2018, 10:48:10 AM
  • Conqueror
  • Legend Member
  • *****
  • Topic Author
  • Thank You: 5193
  • Reputation: 1084
  • Activity:
    100%
  • Country: np
  • Posts: 1821
  • Topics: 1553
  • Join Date: Jul 2016
  • Love Forever !!
Kalyug (2005) Hindi 1080p Untouched Webhd AVC {Music Video} ~ Special26




 :info:
Format                         : Matroska
Format version                 : Version 4
File size                      : 984 MB
Overall bit rate mode          : Variable
Overall bit rate               : 6 259 kb/s


Video
ID                             : 1
Format                         : AVC
Format/Info                    : Advanced Video Codec
Format profile                 : [email protected]
Format settings                : CABAC / 4 Ref Frames
Format settings, CABAC         : Yes
Format settings, ReFrames      : 4 frames
Codec ID                       : V_MPEG4/ISO/AVC
Bit rate mode                  : Variable
Bit rate                       : 6 032 kb/s
Maximum bit rate               : 15.0 Mb/s
Width                          : 1 920 pixels
Height                         : 816 pixels
Display aspect ratio           : 2.35:1
Frame rate mode                : Constant
Frame rate                     : 25.000 FPS
Color space                    : YUV
Chroma subsampling             : 4:2:0
Bit depth                      : 8 bits
Scan type                      : Progressive
Bits/(Pixel*Frame)             : 0.154
Stream size                    : 206 MiB (96%)
Language                       : Hindi
Default                        : Yes
Forced                         : No
Color range                    : Limited
Color primaries                : BT.709
Transfer characteristics       : BT.709
Matrix coefficients            : BT.709


Audio
ID                             : 2
Format                         : E-AC-3
Format/Info                    : Enhanced AC-3
Commercial name                : Dolby Digital Plus
Codec ID                       : A_EAC3
Bit rate mode                  : Constant
Bit rate                       : 224 kb/s
Channel(s)                     : 2 channels
Channel layout                 : L R
Sampling rate                  : 48.0 kHz
Frame rate                     : 31.250 FPS (1536 SPF)
Compression mode               : Lossy
Delay relative to video        : 16 ms
Stream size                    : 7.67 MiB (4%)
Language                       : Hindi
Service kind                   : Complete Main
Default                        : No
Forced                         : No



 :ss:



































 :download:

Share this topic on FacebookShare this topic on GoogleShare this topic on MySpaceShare this topic on TwitterShare this topic on Yahoo

« Last Edit: January 09, 2019, 10:24:32 AM by Special26 »


Thanks given by:


January 07, 2019, 11:56:00 PM
Reply #1
  • Senior Member
  • ***
  • Thank You: 0
  • Reputation: 7
  • Activity:
    37.8%
  • Country: in
  • Posts: 212
  • Topics: 0
  • Join Date: Oct 2016
  • ShareSpark Member
Links are dead. Please Update

Google drive is asking for permission
« Last Edit: January 08, 2019, 06:02:37 PM by MayurSuccess »

January 09, 2019, 10:26:38 AM
Reply #2
  • Conqueror
  • Legend Member
  • *****
  • Topic Author
  • Thank You: 5193
  • Reputation: 1084
  • Activity:
    100%
  • Country: np
  • Posts: 1821
  • Topics: 1553
  • Join Date: Jul 2016
  • Love Forever !!
Links are dead. Please Update

Google drive is asking for permission



@MayurSuccess  ,    Link Updated  !!       :congo:

January 09, 2019, 05:59:46 PM
Reply #3
  • Senior Member
  • ***
  • Thank You: 0
  • Reputation: 7
  • Activity:
    37.8%
  • Country: in
  • Posts: 212
  • Topics: 0
  • Join Date: Oct 2016
  • ShareSpark Member

Tags:
 

Related Topics

  Subject / Started by Replies Last post
1 Replies
478 Views
Last post January 07, 2019, 11:55:55 PM
by MayurSuccess
2 Replies
664 Views
Last post January 12, 2019, 04:03:30 PM
by Special26
3 Replies
662 Views
Last post January 10, 2019, 09:57:26 PM
by MayurSuccess
3 Replies
586 Views
Last post January 08, 2019, 06:00:10 PM
by MayurSuccess
4 Replies
388 Views
Last post January 17, 2019, 08:30:51 PM
by javedn




Back to top