+ ShareSpark.net »  :::: Bollywood Zone » Indian PC Videos
|- Zeher (2005) Hindi 1080p Untouched Webhd AVC {Music Video} ~ Special26


Zeher (2005) Hindi 1080p Untouched Webhd AVC {Music Video} ~ Special26

0 Members and 1 Guest are viewing this topic.

December 17, 2018, 11:36:29 AM
  • Junior Moderator
  • Legend Member
  • ***
  • Topic Author
  • Thank You: 7216
  • Reputation: 1484
  • Activity:
    91.4%
  • Country: np
  • Posts: 3016
  • Topics: 2351
  • Join Date: Jul 2016
  • *Love Forever*
Zeher (2005) Hindi 1080p Untouched Webhd AVC {Music Video} ~ Special26




 :info:
Format                         : Matroska
Format version                 : Version 4
File size                      : 1.02 GB
Overall bit rate mode          : Variable
Overall bit rate               : 6 567 kb/s


Video
ID                             : 1
Format                         : AVC
Format/Info                    : Advanced Video Codec
Format profile                 : [email protected]
Format settings                : CABAC / 4 Ref Frames
Format settings, CABAC         : Yes
Format settings, ReFrames      : 4 frames
Codec ID                       : V_MPEG4/ISO/AVC
Bit rate mode                  : Variable
Bit rate                       : 6 341 kb/s
Maximum bit rate               : 15.0 Mb/s
Width                          : 1 920 pixels
Height                         : 1 040 pixels
Display aspect ratio           : 2.2:1
Original display aspect ratio  : 1.85:1
Frame rate mode                : Constant
Frame rate                     : 24.000 FPS
Color space                    : YUV
Chroma subsampling             : 4:2:0
Bit depth                      : 8 bits
Scan type                      : Progressive
Bits/(Pixel*Frame)             : 0.132
Stream size                    : 210 MiB (97%)
Default                        : Yes
Forced                         : No
Color range                    : Limited
Color primaries                : BT.709
Transfer characteristics       : BT.709
Matrix coefficients            : BT.709


Audio
ID                             : 2
Format                         : E-AC-3
Format/Info                    : Enhanced AC-3
Commercial name                : Dolby Digital Plus
Codec ID                       : A_EAC3
Bit rate mode                  : Constant
Bit rate                       : 224 kb/s
Channel(s)                     : 2 channels
Channel layout                 : L R
Sampling rate                  : 48.0 kHz
Frame rate                     : 31.250 FPS (1536 SPF)
Compression mode               : Lossy
Delay relative to video        : 9 ms
Stream size                    : 7.43 MiB (3%)
Language                       : Hindi
Service kind                   : Complete Main
Default                        : No
Forced                         : No


Text
ID                             : 3
Format                         : UTF-8
Codec ID                       : S_TEXT/UTF8
Codec ID/Info                  : UTF-8 Plain Text
Bit rate                       : 35 b/s
Count of elements              : 24
Stream size                    : 997 Bytes (0%)
Language                       : English
Default                        : Yes
Forced                         : No



 :ss:




















 :download:

Share this topic on FacebookShare this topic on GoogleShare this topic on MySpaceShare this topic on TwitterShare this topic on Yahoo

« Last Edit: January 08, 2019, 04:53:29 PM by Special26 »


Thanks given by:


January 07, 2019, 09:15:30 PM
Reply #1
  • Elite Member
  • ***
  • Thank You: 0
  • Reputation: 21
  • Activity:
    27.6%
  • Country: in
  • Posts: 444
  • Topics: 0
  • Join Date: Oct 2016
  • ShareSpark Member

January 08, 2019, 04:56:23 PM
Reply #2
  • Junior Moderator
  • Legend Member
  • ***
  • Topic Author
  • Thank You: 7216
  • Reputation: 1484
  • Activity:
    91.4%
  • Country: np
  • Posts: 3016
  • Topics: 2351
  • Join Date: Jul 2016
  • *Love Forever*

January 08, 2019, 06:00:10 PM
Reply #3
  • Elite Member
  • ***
  • Thank You: 0
  • Reputation: 21
  • Activity:
    27.6%
  • Country: in
  • Posts: 444
  • Topics: 0
  • Join Date: Oct 2016
  • ShareSpark Member

Tags:
 

Related Topics

  Subject / Started by Replies Last post
2 Replies
904 Views
Last post May 01, 2019, 02:17:29 PM
by hindimusik
4 Replies
1276 Views
Last post February 11, 2019, 12:04:39 PM
by javedn




Back to top