+ ShareSpark.net »  :::: Dubbed Zone (Dubbed English in Hindi) » TV Shows (Dubbed in Hindi)
|- The Protector (2018) Hindi S01 720p WEB-Rip x264 DD5.1 - MSUBS ~ Ranvijay


Mastercard 10% Off

The Protector (2018) Hindi S01 720p WEB-Rip x264 DD5.1 - MSUBS ~ Ranvijay

0 Members and 1 Guest are viewing this topic.

December 17, 2018, 07:31:50 PM
  • Global Moderator
  • Legend Member
  • *****
  • Topic Author
  • Thank You: 11916
  • Reputation: 2421
  • Activity:
    100%
  • Country: in
  • Posts: 5645
  • Topics: 4627
  • Join Date: Jan 2014
  • ıllıllı ѕмoĸιng ιѕ good ғor нealтн ıllıllı :)




The Protector (2018) Hindi S01 720p WEB-Rip x264 DD5.1 - MSUBS ~ Ranvijay

Buy RDP Online




Quote

Format                                   : Matroska
Format version                           : Version 4 / Version 2
File size                                : 562 MiB
Duration                                 : 45 min 32 s
Overall bit rate                         : 1 726 kb/s
Movie name                               : The Protector (2018) Hindi S01E01 720p WEB-Rip x264 DD5.1 - MSUBS ~ Ranvijay

Video
ID                                       : 1
Format                                   : AVC
Format/Info                              : Advanced Video Codec
Duration                                 : 45 min 32 s
Bit rate                                 : 1 499 kb/s
Width                                    : 1 280 pixels
Height                                   : 720 pixels
Display aspect ratio                     : 16:9
Frame rate mode                          : Constant
Frame rate                               : 24.000 FPS
Color space                              : YUV
Chroma subsampling                       : 4:2:0
Bit depth                                : 8 bits
Scan type                                : Progressive
Bits/(Pixel*Frame)                       : 0.068
Stream size                              : 489 MiB (87%)
Title                                    : ~Ranvijay~

Audio
ID                                       : 2
Format                                   : AC-3
Format/Info                              : Audio Coding 3
Codec ID                                 : A_AC3
Duration                                 : 45 min 32 s
Bit rate mode                            : Constant
Bit rate                                 : 224 kb/s
Channel(s)                               : 6 channels
Channel positions                        : Front: L C R, Side: L R, LFE
Sampling rate                            : 48.0 kHz
Frame rate                               : 31.250 FPS (1536 SPF)
Bit depth                                : 16 bits
Compression mode                         : Lossy
Stream size                              : 73.0 MiB (13%)
Title                                    : ~Ranvijay~
Language                                 : Hindi
Service kind                             : Complete Main
Default                                  : Yes
Forced                                   : Yes

Text #1
ID                                       : 3
Format                                   : UTF-8
Codec ID                                 : S_TEXT/UTF8
Codec ID/Info                            : UTF-8 Plain Text
Duration                                 : 42 min 26 s
Bit rate                                 : 1 b/s
Count of elements                        : 17
Stream size                              : 402 Bytes (0%)
Title                                    : ~Ranvijay~
Language                                 : English
Default                                  : Yes
Forced                                   : Yes

Text #2
ID                                       : 4
Format                                   : UTF-8
Codec ID                                 : S_TEXT/UTF8
Codec ID/Info                            : UTF-8 Plain Text
Duration                                 : 44 min 52 s
Bit rate                                 : 60 b/s
Count of elements                        : 653
Stream size                              : 19.9 KiB (0%)
Title                                    : ~Ranvijay~
Language                                 : English
Default                                  : No
Forced                                   : No

Text #3
ID                                       : 5
Format                                   : UTF-8
Codec ID                                 : S_TEXT/UTF8
Codec ID/Info                            : UTF-8 Plain Text
Duration                                 : 44 min 55 s
Bit rate                                 : 76 b/s
Count of elements                        : 594
Stream size                              : 25.1 KiB (0%)
Title                                    : ~Ranvijay~
Language                                 : Arabic
Default                                  : No
Forced                                   : No

Text #4
ID                                       : 6
Format                                   : UTF-8
Codec ID                                 : S_TEXT/UTF8
Codec ID/Info                            : UTF-8 Plain Text
Duration                                 : 44 min 52 s
Bit rate                                 : 144 b/s
Count of elements                        : 590
Stream size                              : 47.5 KiB (0%)
Title                                    : ~Ranvijay~
Language                                 : Hindi
Default                                  : No
Forced                                   : No
















:download:

Quote












File Leeched & Uploaded From




Don't walk as you are king, walk as you don't care who the king is....!!
Never argue with an idiot. They drag you down to their level and then beat you with experience?

Share this topic on FacebookShare this topic on GoogleShare this topic on MySpaceShare this topic on TwitterShare this topic on Yahoo

« Last Edit: December 17, 2018, 07:35:36 PM by Rάήνίјάч1234 »



Don't walk as you are king, walk as you don't care who the king is....!!

December 18, 2018, 09:48:45 AM
Reply #1
  • Semi Newbie
  • **
  • Thank You: 0
  • Reputation: 0
  • Activity:
    1.6%
  • Posts: 23
  • Topics: 0
  • Join Date: Dec 2012
  • ShareSpark Member

Tags:
 

Related Topics





Back to top