+ ShareSpark.net »  :::: Bollywood Zone » Indian PC Videos
|- Shaadi Karke Phas Gaya Yaar (2006) Hindi 1080p Untouched Webhd AVC {Music Video} ~ Special26


Amazon Pantry Offer
  • Shaadi Karke Phas Gaya Yaar (2006) Hindi 1080p Untouched Webhd AVC {Music Video} ~ Special26 5 1
Currently:  

Shaadi Karke Phas Gaya Yaar (2006) Hindi 1080p Untouched Webhd AVC {Music Video} ~ Special26

0 Members and 1 Guest are viewing this topic.

December 18, 2018, 11:06:32 AM
  • Conqueror
  • Legend Member
  • *****
  • Topic Author
  • Thank You: 5196
  • Reputation: 1085
  • Activity:
    100%
  • Country: np
  • Posts: 1821
  • Topics: 1553
  • Join Date: Jul 2016
  • Love Forever !!
Shaadi Karke Phas Gaya Yaar (2006) Hindi 1080p Untouched Webhd AVC {Music Video} ~ Special26




 :info:
Format                         : Matroska
Format version                 : Version 4
File size                      : 835 MiB
Overall bit rate               : 4 415 kb/s


Video
ID                             : 1
Format                         : AVC
Format/Info                    : Advanced Video Codec
Format profile                 : [email protected]
Format settings                : CABAC / 1 Ref Frames
Format settings, CABAC         : Yes
Format settings, ReFrames      : 1 frame
Format settings, GOP           : M=1, N=25
Codec ID                       : V_MPEG4/ISO/AVC
Bit rate mode                  : Constant
Bit rate                       : 4 500 kb/s
Width                          : 1 920 pixels
Height                         : 1 080 pixels
Display aspect ratio           : 16:9
Frame rate mode                : Constant
Frame rate                     : 25.000 FPS
Color space                    : YUV
Chroma subsampling             : 4:2:0
Bit depth                      : 8 bits
Scan type                      : Progressive
Bits/(Pixel*Frame)             : 0.087
Stream size                    : 138 MiB (99%)
Default                        : Yes
Forced                         : No


Audio
ID                             : 2
Format                         : AAC LC
Format/Info                    : Advanced Audio Codec
Codec ID                       : A_AAC-2
Bit rate                       : 61.4 kb/s
Channel(s)                     : 2 channels
Channel layout                 : L R
Sampling rate                  : 48.0 kHz
Frame rate                     : 46.875 FPS (1024 SPF)
Compression mode               : Lossy
Delay relative to video        : 5 ms
Stream size                    : 1.95 MiB (1%)
Default                        : Yes
Forced                         : No



 :ss:

















 :download:

Share this topic on FacebookShare this topic on GoogleShare this topic on MySpaceShare this topic on TwitterShare this topic on Yahoo



Thanks given by:


December 21, 2018, 10:48:41 AM
Reply #1
  • Newbie
  • **
  • Thank You: 0
  • Reputation: 0
  • Activity:
    0.8%
  • Country: in
  • Posts: 4
  • Topics: 0
  • Join Date: Jan 2018
  • ShareSpark Member

Tags:
 

Related Topics





Back to top