+ ShareSpark.net »  :::: Bollywood Zone » Regional Movies » Regional Movies in Hindi
|- RangiTaranga (2018 - South Hindi Dubbed) - 2CD - HDTVRip[x264 - AC3(5.1Ch)]


Samsung Galaxy 8

RangiTaranga (2018 - South Hindi Dubbed) - 2CD - HDTVRip[x264 - AC3(5.1Ch)]

0 Members and 1 Guest are viewing this topic.

December 26, 2018, 11:09:45 PM
  • Semi Newbie
  • **
  • Topic Author
  • Thank You: 3
  • Reputation: 1
  • Activity:
    0%
  • Country: bd
  • Posts: 11
  • Topics: 11
  • Join Date: Dec 2017
  • ShareSpark Member
RangiTaranga (2018 - South Hindi Dubbed) -
 2CD - HDTVRip[x264 - AC3(5.1Ch)] 
 





Code: [Select]
General
Format                                   : Matroska
Format version                           : Version 4
File size                                : 1.40 GiB
Duration                                 : 2 h 27 min

Video
ID                                       : 1
Format                                   : AVC
Format/Info                              : Advanced Video Codec
Format profile                           : [email protected]
Format settings                          : CABAC / 4 Ref Frames
Format settings, CABAC                   : Yes
Format settings, RefFrames               : 4 frames
Codec ID                                 : V_MPEG4/ISO/AVC
Duration                                 : 2 h 27 min
Bit rate                                 : 1 167 kb/s
Width                                    : 720 pixels
Height                                   : 304 pixels
Display aspect ratio                     : 2.35:1
Frame rate mode                          : Constant
Frame rate                               : 25.000 FPS
Color space                              : YUV
Chroma subsampling                       : 4:2:0
Bit depth                                : 8 bits
Scan type                                : Progressive
Bits/(Pixel*Frame)                       : 0.213
Stream size                              : 1.20 GiB (86%)

Audio
ID                                       : 2
Format                                   : AC-3
Format/Info                              : Audio Coding 3
Commercial name                          : Dolby Digital
Codec ID                                 : A_AC3
Duration                                 : 2 h 27 min
Bit rate mode                            : Constant
Bit rate                                 : 192 kb/s
Channel(s)                               : 6 channels
Channel layout                           : L R C LFE Ls Rs
Sampling rate                            : 48.0 kHz
Frame rate                               : 31.250 FPS (1536 SPF)
Bit depth                                : 16 bits
Compression mode                         : Lossy
Stream size                              : 203 MiB (14%)

Thumbnail









Share this topic on FacebookShare this topic on GoogleShare this topic on MySpaceShare this topic on TwitterShare this topic on Yahoo

« Last Edit: December 26, 2018, 11:12:52 PM by Pherarim »



Tags: Mystery Thriller 
 

Related Topics

  Subject / Started by Replies Last post
1 Replies
1611 Views
Last post November 28, 2015, 10:39:15 PM
by Jon Daynamo
0 Replies
428 Views
Last post January 16, 2019, 01:45:00 PM
by Masti_Time




Back to top