+ ShareSpark.net »  :::: Bollywood Zone » Bollywood Movies (Original Rips) » HEVC / H.265 Releases
|- Namastey London (2007) (1080p BluRay x265 HEVC 10bit AAC 5.1 Hindi Natty)


Mastercard 10% Off
  • Namastey London (2007) (1080p BluRay x265 HEVC 10bit AAC 5.1 Hindi Natty) 5 1
Currently:  

Namastey London (2007) (1080p BluRay x265 HEVC 10bit AAC 5.1 Hindi Natty)

0 Members and 1 Guest are viewing this topic.

December 27, 2018, 04:11:37 PM
  • Conqueror
  • Legend Member
  • *****
  • Topic Author
  • Thank You: 6964
  • Reputation: 1422
  • Activity:
    100%
  • Country: np
  • Posts: 2815
  • Topics: 2201
  • Join Date: Jul 2016
  • *Love Forever*
Namastey London (2007) (1080p BluRay x265 HEVC 10bit AAC 5.1 Hindi Natty)


 

:info:
Source : Namastey London.2007.BD25.Untouched BluRay.Eros.DRs
Format                                   : Matroska
Format version                           : Version 4
File size                                : 4.27 GiB
Duration                                 : 2 h 16 min
Overall bit rate                         : 4 475 kb/s


Audio
ID                                       : 2
Format                                   : AAC LC
Format/Info                              : Advanced Audio Codec Low Complexity
Codec ID                                 : A_AAC-2
Duration                                 : 2 h 16 min
Bit rate                                 : 500 kb/s
Channel(s)                               : 6 channels
Channel layout                           : C L R Ls Rs LFE
Sampling rate                            : 48.0 kHz
Frame rate                               : 46.875 FPS (1024 SPF)
Compression mode                         : Lossy
Delay relative to video                  : 20 ms
Stream size                              : 489 MiB (11%)
Language                                 : Hindi
Default                                  : Yes
Forced                                   : No


Subtitle
ID                                       : 3
Format                                   : PGS
Muxing mode                              : zlib
Codec ID                                 : S_HDMV/PGS
Codec ID/Info                            : Picture based subtitle format used on BDs/HD-DVDs
Duration                                 : 2 h 12 min
Bit rate                                 : 40.9 kb/s
Count of elements                        : 2725
Stream size                              : 38.7 MiB (1%)
Language                                 : English
Default                                  : No
Forced                                   : No


Menu
00:00:00.000                             : en:00:00:00.000
00:00:57.766                             : en:00:00:57.766
00:04:01.032                             : en:00:04:01.032
00:06:11.037                             : en:00:06:11.037
00:13:46.701                             : en:00:13:46.701
00:18:49.545                             : en:00:18:49.545
00:23:00.129                             : en:00:23:00.129
00:27:07.292                             : en:00:27:07.292
00:32:46.715                             : en:00:32:46.715
00:35:01.808                             : en:00:35:01.808
00:40:35.683                             : en:00:40:35.683
00:51:21.745                             : en:00:51:21.745
00:54:54.041                             : en:00:54:54.041
01:00:11.358                             : en:01:00:11.358
01:03:47.449                             : en:01:03:47.449
01:15:00.037                             : en:01:15:00.037
01:21:24.004                             : en:01:21:24.004
01:24:06.041                             : en:01:24:06.041
01:29:21.439                             : en:01:29:21.439
01:33:31.606                             : en:01:33:31.606
01:39:49.775                             : en:01:39:49.775
01:45:39.833                             : en:01:45:39.833
01:50:41.718                             : en:01:50:41.718
02:05:51.043                             : en:02:05:51.043



 :ss:





 :download:

Share this topic on FacebookShare this topic on GoogleShare this topic on MySpaceShare this topic on TwitterShare this topic on Yahoo

« Last Edit: January 12, 2019, 08:08:21 AM by Special26 »


Thanks given by:


January 11, 2019, 08:39:58 PM
Reply #1
  • Begginer
  • **
  • Thank You: 14
  • Reputation: 0
  • Activity:
    0.8%
  • Country: in
  • Posts: 52
  • Topics: 10
  • Join Date: May 2015
  • ShareSpark Member

January 12, 2019, 08:11:51 AM
Reply #2
  • Conqueror
  • Legend Member
  • *****
  • Topic Author
  • Thank You: 6964
  • Reputation: 1422
  • Activity:
    100%
  • Country: np
  • Posts: 2815
  • Topics: 2201
  • Join Date: Jul 2016
  • *Love Forever*

January 12, 2019, 05:51:24 PM
Reply #3
  • Begginer
  • **
  • Thank You: 14
  • Reputation: 0
  • Activity:
    0.8%
  • Country: in
  • Posts: 52
  • Topics: 10
  • Join Date: May 2015
  • ShareSpark Member
« Last Edit: January 12, 2019, 05:53:18 PM by nikhilp418 »

Tags:
 

Related Topics

  Subject / Started by Replies Last post
0 Replies
984 Views
Last post August 19, 2014, 01:53:23 AM
by Noµʍaɲ
0 Replies
970 Views
Last post February 01, 2015, 10:11:07 AM
by lovely1629
0 Replies
1351 Views
Last post September 28, 2017, 05:49:59 PM
by ♥[--K4Krish--]♥
10 Replies
2296 Views
Last post April 14, 2018, 01:55:45 PM
by Jatkingdom007
1 Replies
1096 Views
Last post February 08, 2018, 10:55:58 AM
by JokerRonaldo




Back to top