+ ShareSpark.net »  :::: Bollywood Zone » Bollywood Movies (Original Rips) » HEVC / H.265 Releases
|- Jalebi.The.Taste.Of.Everlasting.Love.1080p.HEVC.Untouched.WEB-DL-techbangla


Jalebi.The.Taste.Of.Everlasting.Love.1080p.HEVC.Untouched.WEB-DL-techbangla

0 Members and 1 Guest are viewing this topic.

December 27, 2018, 05:12:15 PM
  • Aur Time Well Come
  • Junior Moderator
  • Legend Member
  • ***
  • Topic Author
  • Thank You: 2135
  • Reputation: 606
  • Activity:
    34.4%
  • Country: pk
  • Posts: 2821
  • Topics: 2020
  • Join Date: Mar 2015
  • =$ Success Never Ends $=
Jalebi.The.Taste.Of.Everlasting.Love.1080p.HEVC.Untouched.WEB-DL-techbangla





Format                                   : Matroska
Format version                           : Version 4 / Version 2
File size                                : 2.17 GiB
Duration                                 : 1 h 43 min
Overall bit rate                         : 2 987 kb/s
Encoded date                             : UTC 2018-11-28 20:00:37
Writing application                      : mkvmerge v25.0.0 ('Prog Noir') 32-bit
Writing library                          : libebml v1.3.6 + libmatroska v1.4.9

Video
ID                                       : 1
Format                                   : HEVC
Format/Info                              : High Efficiency Video Coding
Format profile                           : [email protected]@Main
Codec ID                                 : V_MPEGH/ISO/HEVC
Duration                                 : 1 h 43 min
Bit rate                                 : 2 346 kb/s
Width                                    : 1 920 pixels
Height                                   : 816 pixels
Display aspect ratio                     : 2.35:1
Frame rate mode                          : Constant
Frame rate                               : 24.000 FPS
Standard                                 : NTSC
Color space                              : YUV
Chroma subsampling                       : 4:2:0
Bit depth                                : 8 bits
Bits/(Pixel*Frame)                       : 0.062
Stream size                              : 1.70 GiB (79%)

Default                                  : Yes
Forced                                   : No
Color range                              : Limited
Color primaries                          : BT.709
Transfer characteristics                 : BT.709
Matrix coefficients                      : BT.709

Audio
ID                                       : 2
Format                                   : E-AC-3
Format/Info                              : Enhanced Audio Coding 3
Codec ID                                 : A_EAC3
Duration                                 : 1 h 43 min
Bit rate mode                            : Constant
Bit rate                                 : 640 kb/s
Channel(s)                               : 6 channels
Channel positions                        : Front: L C R, Side: L R, LFE
Sampling rate                            : 48.0 kHz
Frame rate                               : 187.500 FPS (256 SPF)
Compression mode                         : Lossy
Stream size                              : 475 MiB (21%)
Title                                    : Hindi
Language                                 : Hindi
Service kind                             : Complete Main
Default                                  : No
Forced                                   : No

Text
ID                                       : 3
Format                                   : UTF-8
Codec ID                                 : S_TEXT/UTF8
Codec ID/Info                            : UTF-8 Plain Text
Duration                                 : 1 h 41 min
Bit rate                                 : 49 b/s
Count of elements                        : 1317
Stream size                              : 36.7 KiB (0%)
Title                                    : English [SDH]
Language                                 : English
Default                                  : No
Forced                                   : No

Menu
00:00:00.000                             : en:Censor Board Certificate
00:00:05.000                             : en:Disclaimer
00:00:16.000                             : en:Opening Credits
00:00:21.000                             : en:Studio Logo
00:01:15.000                             : en:Scene 5
00:14:12.000                             : en:Scene 6
00:30:39.000                             : en:Scene 7
00:45:05.000                             : en:Scene 8
01:01:58.000                             : en:Scene 9
01:15:58.000                             : en:Scene 10
01:39:30.000                             : en:Scene 11
01:41:01.000                             : en:End Credits











 :download:




Quote



Share this topic on FacebookShare this topic on GoogleShare this topic on MySpaceShare this topic on TwitterShare this topic on Yahoo



Thanks given by:


January 12, 2019, 01:17:59 PM
Reply #1
  • Begginer
  • **
  • Thank You: 0
  • Reputation: 0
  • Activity:
    0.2%
  • Posts: 95
  • Topics: 0
  • Join Date: Apr 2013
  • ShareSpark Member

January 16, 2019, 03:29:21 PM
Reply #2
  • Aur Time Well Come
  • Junior Moderator
  • Legend Member
  • ***
  • Topic Author
  • Thank You: 2135
  • Reputation: 606
  • Activity:
    34.4%
  • Country: pk
  • Posts: 2821
  • Topics: 2020
  • Join Date: Mar 2015
  • =$ Success Never Ends $=

January 17, 2019, 10:19:03 AM
Reply #3
  • Begginer
  • **
  • Thank You: 0
  • Reputation: 0
  • Activity:
    0.2%
  • Posts: 95
  • Topics: 0
  • Join Date: Apr 2013
  • ShareSpark Member
This print is better than the link you provided.Can you reupload it? I need this print.

Tags:
 

Related Topics





Back to top