+ ShareSpark.net »  :::: Bollywood Zone » Bollywood Movies (Original Rips)
|- Once Again (2018) Hindi 720p WEB-HD x264 AC3 5.1 ESub - Sun George


Mastercard 10% Off

Once Again (2018) Hindi 720p WEB-HD x264 AC3 5.1 ESub - Sun George

0 Members and 1 Guest are viewing this topic.

December 29, 2018, 06:22:29 PM
  • Conqueror
  • Legend Member
  • *****
  • Topic Author
  • Thank You: 7037
  • Reputation: 1441
  • Activity:
    100%
  • Country: np
  • Posts: 2876
  • Topics: 2253
  • Join Date: Jul 2016
  • *Love Forever*
Once Again (2018) Hindi 720p WEB-HD x264 AC3 5.1 ESub - Sun George




 :info:
Source : DTOne (Thanks) !!
Format                                   : Matroska
Format version                           : Version 4 / Version 2
File size                                : 1.23 GiB
Duration                                 : 1 h 41 min
Overall bit rate                         : 1 742 kb/s


Video
ID                                       : 1
Format                                   : AVC
Format/Info                              : Advanced Video Codec
Format profile                           : [email protected]
Format settings                          : CABAC / 4 Ref Frames
Format settings, CABAC                   : Yes
Format settings, RefFrames               : 4 frames
Codec ID                                 : V_MPEG4/ISO/AVC
Duration                                 : 1 h 41 min
Bit rate                                 : 1 357 kb/s
Width                                    : 1 280 pixels
Height                                   : 720 pixels
Display aspect ratio                     : 16:9
Frame rate mode                          : Variable
Frame rate                               : 24.000 FPS
Color space                              : YUV
Chroma subsampling                       : 4:2:0
Bit depth                                : 8 bits
Scan type                                : Progressive
Bits/(Pixel*Frame)                       : 0.061
Stream size                              : 984 MiB (78%)


Audio
ID                                       : 2
Format                                   : AC-3
Format/Info                              : Audio Coding 3
Codec ID                                 : A_AC3
Duration                                 : 1 h 41 min
Bit rate mode                            : Constant
Bit rate                                 : 384 kb/s
Channel(s)                               : 6 channels
Channel positions                        : Front: L C R, Side: L R, LFE
Sampling rate                            : 48.0 kHz
Frame rate                               : 31.250 FPS (1536 SPF)
Bit depth                                : 16 bits
Compression mode                         : Lossy
Stream size                              : 278 MiB (22%)
Language                                 : Hindi
Service kind                             : Complete Main
Default                                  : Yes
Forced                                   : No


Text
ID                                       : 3
Format                                   : ASS
Codec ID                                 : S_TEXT/ASS
Codec ID/Info                            : Advanced Sub Station Alpha
Duration                                 : 1 h 35 min
Bit rate                                 : 43 b/s
Count of elements                        : 588
Compression mode                         : Lossless
Stream size                              : 30.5 KiB (0%)
Writing library                          : Lavc57.42.100 ssa
Language                                 : English
Default                                  : Yes
Forced                                   : Yes



 :ss:





 :download:

Share this topic on FacebookShare this topic on GoogleShare this topic on MySpaceShare this topic on TwitterShare this topic on Yahoo



Thanks given by:


Tags:
 

Related Topics





Back to top