+ ShareSpark.net »  :::: Bollywood Zone » Bollywood Movies (Original Rips)
|- Zokkomon (2011) Hindi 720p WEB-DL x264 AC3 5.1 ESub - Sun George


10% SBI and 10% Discount

Zokkomon (2011) Hindi 720p WEB-DL x264 AC3 5.1 ESub - Sun George

0 Members and 1 Guest are viewing this topic.

January 01, 2019, 08:17:32 AM
  • Conqueror
  • Legend Member
  • *****
  • Topic Author
  • Thank You: 6963
  • Reputation: 1421
  • Activity:
    100%
  • Country: np
  • Posts: 2815
  • Topics: 2201
  • Join Date: Jul 2016
  • *Love Forever*
Zokkomon (2011) Hindi 720p WEB-DL x264 AC3 5.1 ESub - Sun George




 :info:
Source : DTOne (Thanks) !!
Format                                   : Matroska
Format version                           : Version 4 / Version 2
File size                                : 1.37 GiB
Duration                                 : 1 h 44 min
Overall bit rate                         : 1 879 kb/s


Video
ID                                       : 1
Format                                   : AVC
Format/Info                              : Advanced Video Codec
Format profile                           : [email protected]
Format settings                          : CABAC / 4 Ref Frames
Format settings, CABAC                   : Yes
Format settings, RefFrames               : 4 frames
Codec ID                                 : V_MPEG4/ISO/AVC
Duration                                 : 1 h 44 min
Bit rate                                 : 1 494 kb/s
Width                                    : 1 280 pixels
Height                                   : 720 pixels
Display aspect ratio                     : 16:9
Frame rate mode                          : Variable
Frame rate                               : 25.000 FPS
Color space                              : YUV
Chroma subsampling                       : 4:2:0
Bit depth                                : 8 bits
Scan type                                : Progressive
Bits/(Pixel*Frame)                       : 0.065
Stream size                              : 1.09 GiB (79%)


Audio
ID                                       : 2
Format                                   : AC-3
Format/Info                              : Audio Coding 3
Codec ID                                 : A_AC3
Duration                                 : 1 h 44 min
Bit rate mode                            : Constant
Bit rate                                 : 384 kb/s
Channel(s)                               : 6 channels
Channel positions                        : Front: L C R, Side: L R, LFE
Sampling rate                            : 48.0 kHz
Frame rate                               : 31.250 FPS (1536 SPF)
Bit depth                                : 16 bits
Compression mode                         : Lossy
Stream size                              : 286 MiB (20%)
Language                                 : Hindi
Service kind                             : Complete Main
Default                                  : Yes
Forced                                   : No


Text
ID                                       : 3
Format                                   : ASS
Codec ID                                 : S_TEXT/ASS
Codec ID/Info                            : Advanced Sub Station Alpha
Duration                                 : 1 h 39 min
Bit rate                                 : 65 b/s
Count of elements                        : 895
Compression mode                         : Lossless
Stream size                              : 47.7 KiB (0%)
Writing library                          : Lavc57.42.100 ssa
Language                                 : English
Default                                  : Yes
Forced                                   : Yes



 :ss:






 :download:

Share this topic on FacebookShare this topic on GoogleShare this topic on MySpaceShare this topic on TwitterShare this topic on Yahoo




Tags:
 

Related Topics

  Subject / Started by Replies Last post
0 Replies
162 Views
Last post December 19, 2018, 06:01:20 PM
by Special26
0 Replies
196 Views
Last post December 22, 2018, 08:11:34 PM
by Special26
0 Replies
209 Views
Last post December 26, 2018, 08:47:02 AM
by Special26
0 Replies
621 Views
Last post December 29, 2018, 06:22:29 PM
by Special26
0 Replies
214 Views
Last post January 04, 2019, 12:57:06 PM
by shahzaibjaan




Back to top