+ ShareSpark.net »  :::: Bollywood Zone » Bollywood Movies (Original Rips)
|- Gour Hari Dastaan - The Freedom File (2015) Hindi 720p WEB-DL x264 AC3 5.1 ESub - Sun George


Mastercard 10% Off

Gour Hari Dastaan - The Freedom File (2015) Hindi 720p WEB-DL x264 AC3 5.1 ESub - Sun George

0 Members and 1 Guest are viewing this topic.

January 02, 2019, 09:44:00 AM
  • Conqueror
  • Legend Member
  • *****
  • Topic Author
  • Thank You: 6962
  • Reputation: 1421
  • Activity:
    100%
  • Country: np
  • Posts: 2815
  • Topics: 2201
  • Join Date: Jul 2016
  • *Love Forever*
Gour Hari Dastaan - The Freedom File (2015) Hindi 720p WEB-DL x264 AC3 5.1 ESub - Sun George




 :info:
Source : DTOne (Thanks) !!
Format                                   : Matroska
Format version                           : Version 4 / Version 2
File size                                : 1.35 GiB
Duration                                 : 1 h 49 min
Overall bit rate                         : 1 769 kb/s


Video
ID                                       : 1
Format                                   : AVC
Format/Info                              : Advanced Video Codec
Format profile                           : [email protected]
Format settings                          : CABAC / 4 Ref Frames
Format settings, CABAC                   : Yes
Format settings, RefFrames               : 4 frames
Codec ID                                 : V_MPEG4/ISO/AVC
Duration                                 : 1 h 49 min
Bit rate                                 : 1 383 kb/s
Width                                    : 1 280 pixels
Height                                   : 720 pixels
Display aspect ratio                     : 16:9
Frame rate mode                          : Variable
Frame rate                               : 25.000 FPS
Color space                              : YUV
Chroma subsampling                       : 4:2:0
Bit depth                                : 8 bits
Scan type                                : Progressive
Bits/(Pixel*Frame)                       : 0.060
Stream size                              : 1.05 GiB (78%)


Audio
ID                                       : 2
Format                                   : AC-3
Format/Info                              : Audio Coding 3
Codec ID                                 : A_AC3
Duration                                 : 1 h 49 min
Bit rate mode                            : Constant
Bit rate                                 : 384 kb/s
Channel(s)                               : 6 channels
Channel positions                        : Front: L C R, Side: L R, LFE
Sampling rate                            : 48.0 kHz
Frame rate                               : 31.250 FPS (1536 SPF)
Bit depth                                : 16 bits
Compression mode                         : Lossy
Stream size                              : 300 MiB (22%)
Language                                 : Hindi
Service kind                             : Complete Main
Default                                  : Yes
Forced                                   : No


Text
ID                                       : 3
Format                                   : UTF-8
Codec ID                                 : S_TEXT/UTF8
Codec ID/Info                            : UTF-8 Plain Text
Duration                                 : 1 h 43 min
Bit rate                                 : 56 b/s
Count of elements                        : 1239
Stream size                              : 42.4 KiB (0%)
Language                                 : English
Default                                  : Yes
Forced                                   : Yes



 :ss:






 :download:

Share this topic on FacebookShare this topic on GoogleShare this topic on MySpaceShare this topic on TwitterShare this topic on Yahoo



Thanks given by:


Tags:
 

Related Topics





Back to top