+ ShareSpark.net »  :::: Bollywood Zone » Bollywood Movies (Original Rips)
|- My Friend Pinto (2011) Hindi 720p WEB-DL x264 AC3 5.1 ESub-Sun George


Redmi 6A

My Friend Pinto (2011) Hindi 720p WEB-DL x264 AC3 5.1 ESub-Sun George

0 Members and 1 Guest are viewing this topic.

January 04, 2019, 12:57:06 PM
  • ***************
  • Conqueror
  • Legend Member
  • *****
  • Topic Author
  • Thank You: 2032
  • Reputation: 582
  • Activity:
    100%
  • Country: pk
  • Posts: 2480
  • Topics: 1727
  • Join Date: Mar 2015
  • =$ Success Never Ends $=
My Friend Pinto (2011) Hindi 720p WEB-DL x264 AC3 5.1 ESub-Sun George











Source : DTOne (Thanks)



General
Format : Matroska
Format version : Version 4 / Version 2
File size : 1.29 GiB
Duration : 1 h 39 min
Overall bit rate : 1 848 kb/s
Movie name : My Friend Pinto (2011) Hindi 720p WEB-DL x264 AC3 5.1 ESub-Sun George (Requested)



===================================================================



Video
ID : 1
Format : AVC
Format/Info : Advanced Video Codec
Format profile : [email protected]
Format settings : CABAC / 4 Ref Frames
Format settings, CABAC : Yes
Format settings, RefFrames : 4 frames
Codec ID : V_MPEG4/ISO/AVC
Duration : 1 h 39 min
Bit rate : 1 462 kb/s
Width : 1 280 pixels
Height : 720 pixels
Display aspect ratio : 16:9
Frame rate mode : Variable
Frame rate : 25.000 FPS
Color space : YUV
Chroma subsampling : 4:2:0
Bit depth : 8 bits
Scan type : Progressive
Bits/(Pixel*Frame) : 0.063
Stream size : 1.02 GiB (79%)
Title : Sun George



===================================================================



Audio
ID : 2
Format : AC-3
Format/Info : Audio Coding 3
Codec ID : A_AC3
Duration : 1 h 39 min
Bit rate mode : Constant
Bit rate : 384 kb/s
Channel(s) : 6 channels
Channel positions : Front: L C R, Side: L R, LFE
Sampling rate : 48.0 kHz
Frame rate : 31.250 FPS (1536 SPF)
Bit depth : 16 bits
Compression mode : Lossy
Stream size : 274 MiB (21%)
Title : Sun George
Language : Hindi
Service kind : Complete Main
Default : Yes
Forced : No

Text
ID : 3
Format : UTF-8
Codec ID : S_TEXT/UTF8
Codec ID/Info : UTF-8 Plain Text
Duration : 1 h 33 min
Bit rate : 59 b/s
Count of elements : 1116
Stream size : 40.4 KiB (0%)
Title : Sun George
Language : English
Default : Yes
Forced : Yes





 :ss:














 :download:




Quote

Share this topic on FacebookShare this topic on GoogleShare this topic on MySpaceShare this topic on TwitterShare this topic on Yahoo




Tags:
 

Related Topics

  Subject / Started by Replies Last post
3 Replies
1018 Views
Last post July 13, 2013, 10:42:26 PM
by anis256
5 Replies
1371 Views
Last post July 14, 2013, 10:44:55 PM
by Maverick.Dude™
0 Replies
848 Views
Last post November 19, 2011, 02:26:27 PM
by Avinash
0 Replies
858 Views
Last post February 23, 2012, 12:43:49 PM
by Blood Warrior
0 Replies
187 Views
Last post January 01, 2019, 08:17:32 AM
by Special26




Back to top