+ ShareSpark.net »  :::: Bollywood Zone » Bollywood Movies (Original Rips)
|- Yeh Hai Bakrapur (2014) Hindi 720p WEB-DL x264 AC3 5.1 ESub-Sun George


Yeh Hai Bakrapur (2014) Hindi 720p WEB-DL x264 AC3 5.1 ESub-Sun George

0 Members and 1 Guest are viewing this topic.

January 04, 2019, 01:13:48 PM
  • Aur Time Well Come
  • Conqueror
  • Legend Member
  • *****
  • Topic Author
  • Thank You: 2129
  • Reputation: 604
  • Activity:
    62.6%
  • Country: pk
  • Posts: 2790
  • Topics: 1987
  • Join Date: Mar 2015
  • =$ Success Never Ends $=
Yeh Hai Bakrapur (2014) Hindi 720p WEB-DL x264 AC3 5.1 ESub-Sun George












Quote

Source : DTOne (Thanks)



General
Format : Matroska
Format version : Version 4 / Version 2
File size : 1.13 GiB
Duration : 1 h 35 min
Overall bit rate : 1 700 kb/s
Movie name : Yeh Hai Bakrapur (2014) Hindi 720p WEB-DL x264 AC3 5.1 ESub-Sun George



===================================================================



Video
ID : 1
Format : AVC
Format/Info : Advanced Video Codec
Format profile : [email protected]
Format settings : CABAC / 4 Ref Frames
Format settings, CABAC : Yes
Format settings, RefFrames : 4 frames
Codec ID : V_MPEG4/ISO/AVC
Duration : 1 h 34 min
Bit rate : 1 314 kb/s
Width : 1 280 pixels
Height : 720 pixels
Display aspect ratio : 16:9
Frame rate mode : Variable
Frame rate : 24.000 FPS
Color space : YUV
Chroma subsampling : 4:2:0
Bit depth : 8 bits
Scan type : Progressive
Bits/(Pixel*Frame) : 0.059
Stream size : 893 MiB (77%)
Title : Sun George



===================================================================



Audio
ID : 2
Format : AC-3
Format/Info : Audio Coding 3
Codec ID : A_AC3
Duration : 1 h 35 min
Bit rate mode : Constant
Bit rate : 384 kb/s
Channel(s) : 6 channels
Channel positions : Front: L C R, Side: L R, LFE
Sampling rate : 48.0 kHz
Frame rate : 31.250 FPS (1536 SPF)
Bit depth : 16 bits
Compression mode : Lossy
Stream size : 261 MiB (23%)
Title : Sun George
Language : Hindi
Service kind : Complete Main
Default : Yes
Forced : No

Text
ID : 3
Format : UTF-8
Codec ID : S_TEXT/UTF8
Codec ID/Info : UTF-8 Plain Text
Duration : 1 h 29 min
Bit rate : 71 b/s
Count of elements : 1508
Stream size : 46.9 KiB (0%)
Title : Sun George
Language : English
Default : Yes
Forced : Yes




 :ss:












 :download:






Quote

Share this topic on FacebookShare this topic on GoogleShare this topic on MySpaceShare this topic on TwitterShare this topic on Yahoo




Tags:
 

Related Topics





Back to top