+ ShareSpark.net »  :::: Bollywood Zone » Bollywood Movies (Original Rips)
|- Thugs of Hindostan (2018) 720p WEB-Rip x264 AAC 5.1 - ESUB ~ Ranvijay


Mastercard 10% Off

Thugs of Hindostan (2018) 720p WEB-Rip x264 AAC 5.1 - ESUB ~ Ranvijay

0 Members and 1 Guest are viewing this topic.

January 04, 2019, 07:41:24 PM
  • Global Moderator
  • Legend Member
  • *****
  • Topic Author
  • Thank You: 12437
  • Reputation: 2552
  • Activity:
    68.2%
  • Country: in
  • Posts: 5753
  • Topics: 4697
  • Join Date: Jan 2014
  • ıllıllı ѕмoĸιng ιѕ good ғor нealтн ıllıllı :)




Thugs of Hindostan (2018) 720p WEB-Rip x264 AAC 5.1 - ESUB ~ Ranvijay

Buy RDP Online



Quote

Source                                  : Team Telly
Format                                   : Matroska
Format version                           : Version 4 / Version 2
File size                                : 1.37 GiB
Duration                                 : 2 h 44 min
Overall bit rate                         : 1 192 kb/s
Movie name                               : Thugs of Hindostan (2018) 720p WEB-Rip x264 AAC 5.1 - ESUB ~ Ranvijay

Video
ID                                       : 1
Format                                   : AVC
Format/Info                              : Advanced Video Codec
Duration                                 : 2 h 44 min
Bit rate                                 : 1 000 kb/s
Width                                    : 1 280 pixels
Height                                   : 536 pixels
Display aspect ratio                     : 2.40:1
Frame rate mode                          : Constant
Frame rate                               : 24.000 FPS
Color space                              : YUV
Chroma subsampling                       : 4:2:0
Bit depth                                : 8 bits
Scan type                                : Progressive
Bits/(Pixel*Frame)                       : 0.061
Stream size                              : 1.15 GiB (84%)
Title                                    : ~Ranvijay~

Audio
ID                                       : 2
Format                                   : AAC
Format/Info                              : Advanced Audio Codec
Format profile                           : LC
Codec ID                                 : A_AAC-2
Duration                                 : 2 h 44 min
Bit rate                                 : 192 kb/s
Channel(s)                               : 6 channels
Channel positions                        : Front: L C R, Side: L R, LFE
Sampling rate                            : 48.0 kHz
Frame rate                               : 46.875 FPS (1024 SPF)
Compression mode                         : Lossy
Delay relative to video                  : 9 ms
Stream size                              : 223 MiB (16%)
Title                                    : ~Ranvijay~
Language                                 : Hindi
Default                                  : Yes
Forced                                   : Yes

Text
ID                                       : 3
Format                                   : UTF-8
Codec ID                                 : S_TEXT/UTF8
Codec ID/Info                            : UTF-8 Plain Text
Duration                                 : 2 h 36 min
Bit rate                                 : 34 b/s
Count of elements                        : 1277
Stream size                              : 39.1 KiB (0%)
Title                                    : ~Ranvijay~
Language                                 : English
Default                                  : Yes
Forced                                   : Yes

Menu
00:00:00.000                             : en:Studio Logos
00:00:38.000                             : en:Scene 2
00:15:30.000                             : en:Title Sequence
00:16:05.000                             : en:Scene 4
00:30:53.000                             : en:Scene 5
00:47:17.000                             : en:Scene 6
00:56:25.000                             : en:Scene 7
01:06:06.000                             : en:Scene 8
01:16:39.000                             : en:Scene 9
01:30:25.000                             : en:Scene 10
01:45:58.000                             : en:Scene 11
01:54:36.000                             : en:Scene 12
02:11:41.000                             : en:Scene 13
02:19:41.000                             : en:Scene 14
02:37:42.000                             : en:End Credits


















:download:

Quote












File Leeched & Uploaded From




Don't walk as you are king, walk as you don't care who the king is....!!
Never argue with an idiot. They drag you down to their level and then beat you with experience?

Share this topic on FacebookShare this topic on GoogleShare this topic on MySpaceShare this topic on TwitterShare this topic on Yahoo

« Last Edit: January 04, 2019, 07:49:27 PM by Rάήνίјάч1234 »



Don't walk as you are king, walk as you don't care who the king is....!!

Thanks given by:


January 04, 2019, 11:26:48 PM
Reply #1
  • Elite Moderator
  • Legend Member
  • ****
  • Thank You: 2006
  • Reputation: 289
  • Activity:
    0.4%
  • Country: in
  • Posts: 3724
  • Topics: 2854
  • Join Date: Sep 2016
  • (: EnJOy D LiFe :)

January 04, 2019, 11:57:02 PM
Reply #2
  • Elite Forces
  • ****
  • Thank You: 249
  • Reputation: 106
  • Activity:
    4.2%
  • Country: sa
  • Posts: 1191
  • Topics: 136
  • Join Date: Jan 2017
  • ShareSpark Member

January 08, 2019, 06:59:23 PM
Reply #3
  • Semi Newbie
  • **
  • Thank You: 0
  • Reputation: 1
  • Activity:
    0.2%
  • Posts: 9
  • Topics: 1
  • Join Date: Feb 2013
  • ShareSpark Member

January 08, 2019, 11:10:50 PM
Reply #4
  • Global Moderator
  • Legend Member
  • *****
  • Topic Author
  • Thank You: 12437
  • Reputation: 2552
  • Activity:
    68.2%
  • Country: in
  • Posts: 5753
  • Topics: 4697
  • Join Date: Jan 2014
  • ıllıllı ѕмoĸιng ιѕ good ғor нealтн ıllıllı :)
Acefile is Working Fine.

Install any VPN nd Set Location To Singapore.

Will Work Perfectly.  :thank: :thank:
« Last Edit: January 08, 2019, 11:11:48 PM by Rάήνίјάч1234 »

Don't walk as you are king, walk as you don't care who the king is....!!

Tags:
 

Related Topics





Back to top