+ ShareSpark.net »  :::: Bollywood Zone » Bollywood Movies (Original Rips)
|- Honeymoon Travels Pvt Ltd. (2007) Hindi 720p WEB-DL x264 AC3 5.1 - Sun George


Amazon Pantry Offer

Honeymoon Travels Pvt Ltd. (2007) Hindi 720p WEB-DL x264 AC3 5.1 - Sun George

0 Members and 1 Guest are viewing this topic.

January 04, 2019, 08:39:27 PM
  • Conqueror
  • Legend Member
  • *****
  • Topic Author
  • Thank You: 6963
  • Reputation: 1421
  • Activity:
    100%
  • Country: np
  • Posts: 2815
  • Topics: 2201
  • Join Date: Jul 2016
  • *Love Forever*
Honeymoon Travels Pvt Ltd. (2007) Hindi 720p WEB-DL x264 AC3 5.1 - Sun George



 :info:
Source : DTOne (Thanks) !!
Format                                   : Matroska
Format version                           : Version 4 / Version 2
File size                                : 1.63 GiB
Duration                                 : 1 h 58 min
Overall bit rate                         : 1 968 kb/s

===================================================================

Video
ID                                       : 1
Format                                   : AVC
Format/Info                              : Advanced Video Codec
Format profile                           : [email protected]
Format settings                          : CABAC / 4 Ref Frames
Format settings, CABAC                   : Yes
Format settings, RefFrames               : 4 frames
Codec ID                                 : V_MPEG4/ISO/AVC
Duration                                 : 1 h 58 min
Bit rate                                 : 1 582 kb/s
Width                                    : 1 280 pixels
Height                                   : 544 pixels
Display aspect ratio                     : 2.35:1
Frame rate mode                          : Variable
Frame rate                               : 23.976 FPS
Color space                              : YUV
Chroma subsampling                       : 4:2:0
Bit depth                                : 8 bits
Scan type                                : Progressive
Bits/(Pixel*Frame)                       : 0.095
Stream size                              : 1.31 GiB (80%)

===================================================================

Audio
ID                                       : 2
Format                                   : AC-3
Format/Info                              : Audio Coding 3
Codec ID                                 : A_AC3
Duration                                 : 1 h 58 min
Bit rate mode                            : Constant
Bit rate                                 : 384 kb/s
Channel(s)                               : 6 channels
Channel positions                        : Front: L C R, Side: L R, LFE
Sampling rate                            : 48.0 kHz
Frame rate                               : 31.250 FPS (1536 SPF)
Bit depth                                : 16 bits
Compression mode                         : Lossy
Stream size                              : 326 MiB (20%)
Language                                 : Hindi
Service kind                             : Complete Main
Default                                  : Yes
Forced                                   : No



 :ss:







 :download:

Share this topic on FacebookShare this topic on GoogleShare this topic on MySpaceShare this topic on TwitterShare this topic on Yahoo




Tags:
 

Related Topics





Back to top