+ ShareSpark.net »  :::: Bollywood Zone » Bollywood Movies (Original Rips)
|- Kyo Kii Main Jhuth Nahin Bolta (2001) Hindi 720p WEB-DL x264 AC3 - Sun George


Mastercard 10% Off

Kyo Kii Main Jhuth Nahin Bolta (2001) Hindi 720p WEB-DL x264 AC3 - Sun George

0 Members and 1 Guest are viewing this topic.

January 04, 2019, 08:55:46 PM
  • Conqueror
  • Legend Member
  • *****
  • Topic Author
  • Thank You: 5182
  • Reputation: 1082
  • Activity:
    100%
  • Country: np
  • Posts: 1814
  • Topics: 1549
  • Join Date: Jul 2016
  • Love Forever !!
Kyo Kii Main Jhuth Nahin Bolta (2001) Hindi 720p WEB-DL x264 AC3 - Sun George



 :info:
Source : DTOne (Thanks) !!
Format                                   : Matroska
Format version                           : Version 4 / Version 2
File size                                : 1.87 GiB
Duration                                 : 2 h 36 min
Overall bit rate                         : 1 709 kb/s


Video
ID                                       : 1
Format                                   : AVC
Format/Info                              : Advanced Video Codec
Format profile                           : [email protected]
Format settings                          : CABAC / 4 Ref Frames
Format settings, CABAC                   : Yes
Format settings, RefFrames               : 4 frames
Codec ID                                 : V_MPEG4/ISO/AVC
Duration                                 : 2 h 36 min
Bit rate                                 : 1 483 kb/s
Width                                    : 1 280 pixels
Height                                   : 720 pixels
Display aspect ratio                     : 16:9
Frame rate mode                          : Variable
Frame rate                               : 24.000 FPS
Color space                              : YUV
Chroma subsampling                       : 4:2:0
Bit depth                                : 8 bits
Scan type                                : Progressive
Bits/(Pixel*Frame)                       : 0.067
Stream size                              : 1.62 GiB (87%)


Audio
ID                                       : 2
Format                                   : AC-3
Format/Info                              : Audio Coding 3
Codec ID                                 : A_AC3
Duration                                 : 2 h 36 min
Bit rate mode                            : Constant
Bit rate                                 : 224 kb/s
Channel(s)                               : 2 channels
Channel positions                        : Front: L R
Sampling rate                            : 48.0 kHz
Frame rate                               : 31.250 FPS (1536 SPF)
Bit depth                                : 16 bits
Compression mode                         : Lossy
Stream size                              : 250 MiB (13%)
Language                                 : Hindi
Service kind                             : Complete Main
Default                                  : Yes
Forced                                   : No



 :ss:




 
:download:

Share this topic on FacebookShare this topic on GoogleShare this topic on MySpaceShare this topic on TwitterShare this topic on Yahoo

« Last Edit: January 04, 2019, 09:20:33 PM by Special26 »


Thanks given by:


Tags:
 

Related Topics

  Subject / Started by Replies Last post
2 Replies
1074 Views
Last post January 23, 2014, 06:34:16 PM
by kunfu
0 Replies
747 Views
Last post June 17, 2014, 08:51:34 AM
by donking
2 Replies
1248 Views
Last post February 13, 2015, 04:11:56 PM
by basant kumar
0 Replies
679 Views
Last post February 18, 2017, 08:05:12 PM
by Mr.Green
8 Replies
342 Views
Last post November 30, 2018, 10:43:26 PM
by nirzak




Back to top