+ ShareSpark.net »  :::: Bollywood Zone » Bollywood Movies (Original Rips)
|- Time Out (2015) Hindi 720p WEB-DL x264 AC3 - Sun George


Electroncs Sale

Time Out (2015) Hindi 720p WEB-DL x264 AC3 - Sun George

0 Members and 1 Guest are viewing this topic.

January 06, 2019, 08:35:04 AM
  • Conqueror
  • Legend Member
  • *****
  • Topic Author
  • Thank You: 5182
  • Reputation: 1082
  • Activity:
    100%
  • Country: np
  • Posts: 1814
  • Topics: 1549
  • Join Date: Jul 2016
  • Love Forever !!
Time Out (2015) Hindi 720p WEB-DL x264 AC3 - Sun George






===================================================================

Source : DTOne (Thanks) !!
Format                                   : Matroska
Format version                           : Version 4 / Version 2
File size                                : 1.08 GiB
Duration                                 : 1 h 34 min
Overall bit rate                         : 1 624 kb/s


===================================================================

Video
ID                                       : 1
Format                                   : AVC
Format/Info                              : Advanced Video Codec
Format profile                           : [email protected]
Format settings                          : CABAC / 4 Ref Frames
Format settings, CABAC                   : Yes
Format settings, RefFrames               : 4 frames
Codec ID                                 : V_MPEG4/ISO/AVC
Duration                                 : 1 h 34 min
Bit rate                                 : 1 398 kb/s
Width                                    : 1 280 pixels
Height                                   : 720 pixels
Display aspect ratio                     : 16:9
Frame rate mode                          : Variable
Frame rate                               : 25.000 FPS
Color space                              : YUV
Chroma subsampling                       : 4:2:0
Bit depth                                : 8 bits
Scan type                                : Progressive
Bits/(Pixel*Frame)                       : 0.061
Stream size                              : 948 MiB (86%)


===================================================================

Audio
ID                                       : 2
Format                                   : AC-3
Format/Info                              : Audio Coding 3
Codec ID                                 : A_AC3
Duration                                 : 1 h 34 min
Bit rate mode                            : Constant
Bit rate                                 : 224 kb/s
Channel(s)                               : 2 channels
Channel positions                        : Front: L R
Sampling rate                            : 44.1 kHz
Frame rate                               : 28.711 FPS (1536 SPF)
Bit depth                                : 16 bits
Compression mode                         : Lossy
Stream size                              : 152 MiB (14%)
Language                                 : Hindi
Service kind                             : Complete Main
Default                                  : Yes
Forced                                   : No











 :download:

Share this topic on FacebookShare this topic on GoogleShare this topic on MySpaceShare this topic on TwitterShare this topic on Yahoo




Tags:
 

Related Topics





Back to top