+ ShareSpark.net »  :::: Bollywood Zone » Bollywood Movies (Original Rips)
|- Hazaaron Khwaishein Aisi (2005) Hindi 720p WEB-DL x264 AC3 ESub - Sun George


100% Recharge Offer

Hazaaron Khwaishein Aisi (2005) Hindi 720p WEB-DL x264 AC3 ESub - Sun George

0 Members and 1 Guest are viewing this topic.

January 09, 2019, 08:41:33 PM
  • Conqueror
  • Legend Member
  • *****
  • Topic Author
  • Thank You: 5182
  • Reputation: 1082
  • Activity:
    100%
  • Country: np
  • Posts: 1814
  • Topics: 1549
  • Join Date: Jul 2016
  • Love Forever !!
Hazaaron Khwaishein Aisi (2005) Hindi 720p WEB-DL x264 AC3 ESub - Sun George






Source : Hon3yHD (Thanks) !!
Format                                   : Matroska
Format version                           : Version 4 / Version 2
File size                                : 1.31 GiB
Duration                                 : 1 h 50 min
Overall bit rate                         : 1 702 kb/s


Video
ID                                       : 1
Format                                   : AVC
Format/Info                              : Advanced Video Codec
Format profile                           : [email protected]
Format settings                          : CABAC / 4 Ref Frames
Format settings, CABAC                   : Yes
Format settings, RefFrames               : 4 frames
Codec ID                                 : V_MPEG4/ISO/AVC
Duration                                 : 1 h 50 min
Bit rate                                 : 1 500 kb/s
Width                                    : 1 280 pixels
Height                                   : 720 pixels
Display aspect ratio                     : 16:9
Frame rate mode                          : Variable
Frame rate                               : 25.000 FPS
Color space                              : YUV
Chroma subsampling                       : 4:2:0
Bit depth                                : 8 bits
Scan type                                : Progressive
Bits/(Pixel*Frame)                       : 0.065
Stream size                              : 1.14 GiB (87%)


Audio
ID                                       : 2
Format                                   : AC-3
Format/Info                              : Audio Coding 3
Codec ID                                 : A_AC3
Duration                                 : 1 h 50 min
Bit rate mode                            : Constant
Bit rate                                 : 224 kb/s
Channel(s)                               : 2 channels
Channel positions                        : Front: L R
Sampling rate                            : 48.0 kHz
Frame rate                               : 31.250 FPS (1536 SPF)
Bit depth                                : 16 bits
Compression mode                         : Lossy
Stream size                              : 177 MiB (13%)
Language                                 : Hindi
Service kind                             : Complete Main
Default                                  : Yes
Forced                                   : No


Text
ID                                       : 3
Format                                   : ASS
Codec ID                                 : S_TEXT/ASS
Codec ID/Info                            : Advanced Sub Station Alpha
Duration                                 : 1 h 49 min
Bit rate                                 : 104 b/s
Count of elements                        : 1441
Compression mode                         : Lossless
Stream size                              : 84.1 KiB (0%)
Writing library                          : Lavc57.42.100 ssa
Language                                 : English
Default                                  : Yes
Forced                                   : Yes












 :download:

Share this topic on FacebookShare this topic on GoogleShare this topic on MySpaceShare this topic on TwitterShare this topic on Yahoo

« Last Edit: January 09, 2019, 08:41:55 PM by Special26 »



Tags:
 

Related Topics

  Subject / Started by Replies Last post
1 Replies
791 Views
Last post May 03, 2013, 03:17:28 PM
by kamal
2 Replies
783 Views
Last post May 16, 2014, 08:51:54 AM
by LadLa Princ3
2 Replies
710 Views
Last post August 19, 2014, 05:41:33 PM
by NikS97
0 Replies
753 Views
Last post September 10, 2017, 09:32:41 AM
by -Tushar-
0 Replies
186 Views
Last post December 29, 2018, 06:03:17 PM
by Special26




Back to top