+ ShareSpark.net »  :::: Bollywood Zone » Bollywood Movies (Original Rips)
|- Katti Batti (2015) Hindi 720p WEB-DL x264 AC3 DD 5.1 ESubs - Sun George


Redmi 6A

Katti Batti (2015) Hindi 720p WEB-DL x264 AC3 DD 5.1 ESubs - Sun George

0 Members and 1 Guest are viewing this topic.

January 12, 2019, 02:58:06 PM
  • Conqueror
  • Legend Member
  • *****
  • Topic Author
  • Thank You: 6152
  • Reputation: 1318
  • Activity:
    100%
  • Country: np
  • Posts: 2426
  • Topics: 1944
  • Join Date: Jul 2016
  • *Love Forever*
Katti Batti (2015) Hindi 720p WEB-DL x264 AC3 DD 5.1 ESubs - Sun George









Format                                   : Matroska
Format version                           : Version 4 / Version 2
File size                                : 1.45 GiB
Duration                                 : 2 h 12 min
Overall bit rate                         : 1 571 kb/s


Video
ID                                       : 1
Format                                   : AVC
Format/Info                              : Advanced Video Codec
Format profile                           : [email protected]
Format settings                          : CABAC / 5 Ref Frames
Format settings, CABAC                   : Yes
Format settings, RefFrames               : 5 frames
Codec ID                                 : V_MPEG4/ISO/AVC
Duration                                 : 2 h 12 min
Bit rate                                 : 1 200 kb/s
Width                                    : 1 280 pixels
Height                                   : 720 pixels
Display aspect ratio                     : 16:9
Frame rate mode                          : Constant
Frame rate                               : 25.000 FPS
Color space                              : YUV
Chroma subsampling                       : 4:2:0
Bit depth                                : 8 bits
Scan type                                : Progressive
Bits/(Pixel*Frame)                       : 0.052
Stream size                              : 1.10 GiB (75%)


Audio
ID                                       : 2
Format                                   : AC-3
Format/Info                              : Audio Coding 3
Codec ID                                 : A_AC3
Duration                                 : 2 h 12 min
Bit rate mode                            : Constant
Bit rate                                 : 384 kb/s
Channel(s)                               : 6 channels
Channel positions                        : Front: L C R, Side: L R, LFE
Sampling rate                            : 48.0 kHz
Frame rate                               : 31.250 FPS (1536 SPF)
Bit depth                                : 16 bits
Compression mode                         : Lossy
Stream size                              : 363 MiB (24%)
Language                                 : Hindi
Service kind                             : Complete Main
Default                                  : Yes
Forced                                   : No


Text
ID                                       : 3
Format                                   : UTF-8
Codec ID                                 : S_TEXT/UTF8
Codec ID/Info                            : UTF-8 Plain Text
Duration                                 : 2 h 5 min
Bit rate                                 : 64 b/s
Count of elements                        : 1549
Stream size                              : 59.6 KiB (0%)
Language                                 : English
Default                                  : Yes
Forced                                   : Yes













 :download:

Share this topic on FacebookShare this topic on GoogleShare this topic on MySpaceShare this topic on TwitterShare this topic on Yahoo




Tags:
 

Related Topics





Back to top