+ ShareSpark.net »  :::: Bollywood Zone » Bollywood Movies (Original Rips) » Bollywood Movies (1945-2000)
|- Hum Aapke Hain Koun (1994) Hindi 720p NF WEB-HD x264 AC3 ESub - Sun George


Amazon Fashion

Hum Aapke Hain Koun (1994) Hindi 720p NF WEB-HD x264 AC3 ESub - Sun George

0 Members and 1 Guest are viewing this topic.

January 12, 2019, 03:10:14 PM
  • Conqueror
  • Legend Member
  • *****
  • Topic Author
  • Thank You: 5136
  • Reputation: 1076
  • Activity:
    100%
  • Country: np
  • Posts: 1771
  • Topics: 1524
  • Join Date: Jul 2016
  • Love Forever !!
Hum Aapke Hain Koun (1994) Hindi 720p NF WEB-HD x264 AC3 ESub - Sun George







Format                                   : Matroska
Format version                           : Version 4 / Version 2
File size                                : 1.88 GiB
Duration                                 : 3 h 13 min
Overall bit rate                         : 1 395 kb/s


Video
ID                                       : 1
Format                                   : AVC
Format/Info                              : Advanced Video Codec
Format profile                           : [email protected]
Format settings                          : CABAC / 5 Ref Frames
Format settings, CABAC                   : Yes
Format settings, RefFrames               : 5 frames
Codec ID                                 : V_MPEG4/ISO/AVC
Duration                                 : 3 h 13 min
Bit rate                                 : 1 200 kb/s
Width                                    : 1 280 pixels
Height                                   : 720 pixels
Display aspect ratio                     : 16:9
Frame rate mode                          : Constant
Frame rate                               : 23.976 (24000/1001) FPS
Color space                              : YUV
Chroma subsampling                       : 4:2:0
Bit depth                                : 8 bits
Scan type                                : Progressive
Bits/(Pixel*Frame)                       : 0.054
Stream size                              : 1.62 GiB (86%)


Audio
ID                                       : 2
Format                                   : AC-3
Format/Info                              : Audio Coding 3
Codec ID                                 : A_AC3
Duration                                 : 3 h 13 min
Bit rate mode                            : Constant
Bit rate                                 : 192 kb/s
Channel(s)                               : 2 channels
Channel positions                        : Front: L R
Sampling rate                            : 48.0 kHz
Frame rate                               : 31.250 FPS (1536 SPF)
Bit depth                                : 16 bits
Compression mode                         : Lossy
Stream size                              : 265 MiB (14%)
Language                                 : Hindi
Service kind                             : Complete Main
Default                                  : Yes
Forced                                   : No


Text
ID                                       : 3
Format                                   : UTF-8
Codec ID                                 : S_TEXT/UTF8
Codec ID/Info                            : UTF-8 Plain Text
Duration                                 : 3 h 12 min
Bit rate                                 : 54 b/s
Count of elements                        : 2410
Stream size                              : 76.1 KiB (0%)
Language                                 : English
Default                                  : Yes
Forced                                   : Yes












 :download:

Share this topic on FacebookShare this topic on GoogleShare this topic on MySpaceShare this topic on TwitterShare this topic on Yahoo




Tags:
 

Related Topics

  Subject / Started by Replies Last post
1 Replies
1425 Views
Last post March 08, 2016, 06:03:45 AM
by azhar0300♥♫
2 Replies
1557 Views
Last post September 08, 2017, 11:36:17 AM
by sumanshee
3 Replies
1647 Views
Last post August 22, 2016, 10:44:12 AM
by shahzaibjaan
1 Replies
897 Views
Last post June 15, 2017, 04:29:36 PM
by ~DoSANJiT
2 Replies
1030 Views
Last post January 13, 2019, 11:22:59 PM
by insane88




Back to top